梦幻天堂·龙网

 找回密码
 立即注册
查看: 10938|回复: 75

[最新电影龙网转发] 【龙网转发】【胡歌2023最新高分剧情佳作】【不虚此行】【WebDL-2160p.MKV】【国语】

[复制链接]

2816

主题

3万

帖子

7万

积分

九鼎龙王·坛主

偶系漂漂滴龙民

Rank: 46Rank: 46Rank: 46Rank: 46Rank: 46Rank: 46

积分
75796

航子大神勋章

发表于 2023-11-23 13:22:39 | 显示全部楼层 |阅读模式
海报





译  名 不虚此行/不虚此行。/倾听
片  名 All Ears
年  代 2023
国  家 中国
类  别 剧情
语  言 汉语普通话
字  幕 中英硬字幕
评  分 7.1/10 from 44,993 users
链  接 https://movie.douban.com/subject/35432345
文件大小 9.77 GB
片  长 119 Min
导  演 刘伽茵 Jiayin Liu
主  演 胡歌 Ge Hu
     吴磊 Leo Wu
     齐溪 Xi Qi
     娜仁花 Renhua Na
     甘昀宸 Yunchen Gan
     黄磊 Lei Huang
     扈耀之 Yaozhi Hu
     白客 White. K
     孙淳 Chun Sun
     杨庆生 Qingsheng Yang
     龚蓓苾 Beibi Gong

简介

  人这一生怎样才算不虚此行?闻善(胡歌 饰)在平衡自己与世界的关系中寻找着答案。他是一个“掉队”的普通编剧,一次偶然的机会让他改以撰写悼词为生。在与各色普通人的相遇里,闻善慰藉他人、也获得了温暖,最终找到了自己的人生方向。

Video
Format                         : HEVC
Format/Info                    : High Efficiency Video Coding
Format profile                 : Main@L5@Main
Codec ID                       : V_MPEGH/ISO/HEVC
Duration                       : 1 h 59 min
Bit rate                       : 11.5 Mb/s
Width                          : 3 344 pixels
Height                         : 2 160 pixels
Display aspect ratio           : 3:2
Frame rate mode                : Constant
Frame rate                     : 24.000 FPS
Color space                    : YUV
Chroma subsampling             : 4:2:0
Bit depth                      : 8 bits
Bits/(Pixel*Frame)             : 0.066
Stream size                    : 9.56 GiB (98%)

Audio
Format                         : E-AC-3
Format/Info                    : Enhanced AC-3
Commercial name                : Dolby Digital Plus
Codec ID                       : A_EAC3
Duration                       : 1 h 59 min
Bit rate mode                  : Constant
Bit rate                       : 256 kb/s
Channel(s)                     : 6 channels
Channel layout                 : L R C LFE Ls Rs
Sampling rate                  : 48.0 kHz
Frame rate                     : 31.250 FPS (1536 SPF)
Compression mode               : Lossy
Stream size                    : 218 MiB (2%)
Language                       : Chinese
Service kind                   : Complete Main

截图




BT种子下载
梦幻天堂·龙网(www.LWgod.org).不虚此行.倾听.torrent (50.2 KB, 下载次数: 2467)

0

主题

238

帖子

2751

积分

赤血神龙

Rank: 20Rank: 20Rank: 20Rank: 20

积分
2751
发表于 2023-11-23 13:49:34 | 显示全部楼层
感谢,航子,辛苦发片~!

0

主题

1万

帖子

1万

积分

神界龙王

Rank: 30Rank: 30Rank: 30Rank: 30

积分
15722
QQ
发表于 2023-11-23 14:06:33 | 显示全部楼层
感谢航子分享
一切终会过去

0

主题

146

帖子

552

积分

升龙霸·VIP

Rank: 22Rank: 22Rank: 22Rank: 22

积分
552

龙网VIP·银星龙网VIP·银章

发表于 2023-11-23 14:47:00 | 显示全部楼层
不虚此行,感谢分享

0

主题

117

帖子

254

积分

龙少爷

Rank: 10Rank: 10

积分
254
发表于 2023-11-23 15:53:21 | 显示全部楼层
先下为敬,感谢航子

1

主题

456

帖子

1198

积分

神龙

Rank: 15Rank: 15Rank: 15

积分
1198
发表于 2023-11-23 16:01:30 | 显示全部楼层
谢谢分享佳片

1

主题

1451

帖子

2554

积分

赤血神龙

Rank: 20Rank: 20Rank: 20Rank: 20

积分
2554
发表于 2023-11-23 16:01:36 | 显示全部楼层
航子归来!!

0

主题

193

帖子

328

积分

龙少爷

Rank: 10Rank: 10

积分
328
发表于 2023-11-23 16:05:11 | 显示全部楼层
看上去不错,感谢航子分享

0

主题

380

帖子

3302

积分

赤血神龙

Rank: 20Rank: 20Rank: 20Rank: 20

积分
3302
发表于 2023-11-23 16:05:32 | 显示全部楼层
楼主辛苦,多谢分享。

0

主题

246

帖子

349

积分

龙少爷

Rank: 10Rank: 10

积分
349
发表于 2023-11-23 16:07:42 | 显示全部楼层
谢谢版主辛苦发贴,收藏了。

779

主题

9408

帖子

1万

积分

神界龙王

Rank: 30Rank: 30Rank: 30Rank: 30

积分
13033
发表于 2023-11-23 16:09:49 | 显示全部楼层
感谢楼主分享

0

主题

75

帖子

141

积分

龙之子

Rank: 8Rank: 8Rank: 8Rank: 8

积分
141
发表于 2023-11-23 16:11:01 | 显示全部楼层

谢谢分享佳片

1

主题

696

帖子

2401

积分

赤血神龙

Rank: 20Rank: 20Rank: 20Rank: 20

积分
2401
QQ
发表于 2023-11-23 16:17:49 | 显示全部楼层
感谢楼主分享

0

主题

34

帖子

119

积分

龙之子

Rank: 8Rank: 8Rank: 8Rank: 8

积分
119
发表于 2023-11-23 16:57:29 | 显示全部楼层
演员阵容就先具备吸引力了。感谢航子!

0

主题

781

帖子

1962

积分

神龙

Rank: 15Rank: 15Rank: 15

积分
1962
发表于 2023-11-23 17:21:41 | 显示全部楼层
感谢分享!辛苦了!
您需要登录后才可以回帖 登录 | 立即注册

本版积分规则

小黑屋|梦幻天堂·龙网

GMT+8, 2024-3-1 18:16 , Processed in 0.198303 second(s), 27 queries , Gzip On.

Powered by Discuz! X3.2

© 2001-2013 Comsenz Inc.

快速回复 返回顶部 返回列表