梦幻天堂·龙网

 找回密码
 立即注册
查看: 11725|回复: 120

[最新电影龙网转发] 【龙网转发】【美国2023最新视效动作科幻】【AI创世者】【WebDL-1080p.MKV】【中字】

  [复制链接]

2816

主题

3万

帖子

7万

积分

九鼎龙王·坛主

偶系漂漂滴龙民

Rank: 46Rank: 46Rank: 46Rank: 46Rank: 46Rank: 46

积分
75796

航子大神勋章

发表于 2023-11-15 14:54:34 | 显示全部楼层 |阅读模式
海报





译  名 AI创世者/A.I.创世者(台)/造物主/真爱
片  名 The Creator
年  代 2023
国  家 美国
类  别 动作/科幻/惊悚
语  言 英语
字  幕 中简/中繁/英文
评  分 6.3/10 from 2,600 users
链  接 https://movie.douban.com/subject/35453476
文件大小 7.94 GB
片  长 133 Min
导  演 加里斯·爱德华斯 Gareth Edwards
主  演 约翰·大卫·华盛顿 John David Washington
     马德琳·尤娜·沃伊尔斯 Madeleine Yuna Voyles
     嘉玛·陈 Gemma Chan
     艾莉森·珍妮 Allison Janney
     渡边谦 Ken Watanabe
     斯特吉尔·辛普森 Sturgill Simpson
     阿默·查达·帕特尔 Amer Chadha-Patel
     马克·门查卡 Marc Menchaca
     罗比·坦恩 Robbie Tann
     拉尔夫·伊内森 Ralph Ineson
     迈克尔·埃斯佩尔 Michael Esper

简介

  在人类与AI如火如荼的未来战争中,精明干练的前特种部队探员约书亚(约翰·大卫·华盛顿 饰),在摆脱不了妻子失踪已久的悲伤之际,又被招募执行刺杀“AI创世者”的关键任务,势在阻止AI歼灭人类并终结战争的秘密武器。约书亚带领菁英小组深入AI领域的危险中心,却发现他必须摧毁的终极致命武器,竟是个拥有纯真孩童外表的AI……

Video
Format                         : AVC
Format/Info                    : Advanced Video Codec
Format profile                 : High@L4
Format settings                : CABAC / 4 Ref Frames
Format settings, CABAC         : Yes
Format settings, Reference fra : 4 frames
Codec ID                       : V_MPEG4/ISO/AVC
Duration                       : 2 h 13 min
Bit rate                       : 8 000 kb/s
Width                          : 1 920 pixels
Height                         : 1 080 pixels
Display aspect ratio           : 16:9
Frame rate mode                : Constant
Frame rate                     : 24.000 FPS
Color space                    : YUV
Chroma subsampling             : 4:2:0
Bit depth                      : 8 bits
Scan type                      : Progressive
Bits/(Pixel*Frame)             : 0.161
Stream size                    : 7.22 GiB (91%)
Color range                    : Limited
Color primaries                : BT.709
Transfer characteristics       : BT.709
Matrix coefficients            : BT.709

Audio
Format                         : E-AC-3 JOC
Format/Info                    : Enhanced AC-3 with Joint Object Coding
Commercial name                : Dolby Digital Plus with Dolby Atmos
Codec ID                       : A_EAC3
Duration                       : 2 h 13 min
Bit rate mode                  : Constant
Bit rate                       : 768 kb/s
Channel(s)                     : 6 channels
Channel layout                 : L R C LFE Ls Rs
Sampling rate                  : 48.0 kHz
Frame rate                     : 31.250 FPS (1536 SPF)
Compression mode               : Lossy
Stream size                    : 733 MiB (9%)
Language                       : English
Service kind                   : Complete Main

截图




BT种子下载
梦幻天堂·龙网(www.LWgod.org).AI创世者.torrent (40.95 KB, 下载次数: 7230)

0

主题

338

帖子

402

积分

龙少爷

Rank: 10Rank: 10

积分
402
发表于 2023-11-15 15:23:04 | 显示全部楼层
刚发没有多久的,感觉分享!
恭喜自己拿到邀请码了。

4

主题

567

帖子

2670

积分

赤血神龙

Rank: 20Rank: 20Rank: 20Rank: 20

积分
2670

龙网爱心勋章

QQ
发表于 2023-11-15 15:31:43 | 显示全部楼层
传说不太卖座  下载看看

期待碟中谍7
生活不容易

0

主题

151

帖子

351

积分

龙少爷

Rank: 10Rank: 10

积分
351
发表于 2023-11-15 15:33:03 | 显示全部楼层
终于发片了{:4_151:}{:4_151:}{:4_151:}{:4_151:}{:4_151:}{:4_151:}

1

主题

456

帖子

1198

积分

神龙

Rank: 15Rank: 15Rank: 15

积分
1198
发表于 2023-11-15 15:43:56 | 显示全部楼层
谢谢航子分享

0

主题

380

帖子

3302

积分

赤血神龙

Rank: 20Rank: 20Rank: 20Rank: 20

积分
3302
发表于 2023-11-15 16:01:26 | 显示全部楼层
楼主辛苦,多谢分享。

0

主题

484

帖子

1112

积分

升龙霸·VIP

Rank: 22Rank: 22Rank: 22Rank: 22

积分
1112

龙网VIP·银章

发表于 2023-11-15 16:09:54 | 显示全部楼层
终于又更新了,真不容易啊,多谢

1

主题

332

帖子

603

积分

龙的传人

Rank: 13Rank: 13Rank: 13

积分
603
发表于 2023-11-15 16:10:35 | 显示全部楼层
终于发片了,还以为这个论坛要沉默了

1

主题

235

帖子

1769

积分

神龙

Rank: 15Rank: 15Rank: 15

积分
1769
发表于 2023-11-15 16:32:28 | 显示全部楼层
{:4_130:}{:4_130:}{:4_130:}{:4_130:}{:4_130:}

2

主题

1748

帖子

2295

积分

赤血神龙

Rank: 20Rank: 20Rank: 20Rank: 20

积分
2295
发表于 2023-11-15 17:01:15 | 显示全部楼层
谢谢分享,下载看看。

1

主题

696

帖子

2401

积分

赤血神龙

Rank: 20Rank: 20Rank: 20Rank: 20

积分
2401
QQ
发表于 2023-11-15 17:07:03 | 显示全部楼层
下载来看看

1

主题

4141

帖子

5810

积分

海龙王

Rank: 25Rank: 25Rank: 25Rank: 25Rank: 25

积分
5810
发表于 2023-11-15 17:20:32 | 显示全部楼层
感谢楼主分享!!!!!

0

主题

570

帖子

955

积分

龙的传人

Rank: 13Rank: 13Rank: 13

积分
955
发表于 2023-11-15 17:53:27 | 显示全部楼层
支持楼主,谢谢分享。

0

主题

685

帖子

2279

积分

赤血神龙

Rank: 20Rank: 20Rank: 20Rank: 20

积分
2279
发表于 2023-11-15 17:55:06 | 显示全部楼层
感谢你的分享

19

主题

4万

帖子

6万

积分

天地独尊龙王

梦幻天使

Rank: 33Rank: 33Rank: 33Rank: 33Rank: 33

积分
62427
发表于 2023-11-15 18:18:34 | 显示全部楼层
非常感谢航子分享精彩影片!
您需要登录后才可以回帖 登录 | 立即注册

本版积分规则

小黑屋|梦幻天堂·龙网

GMT+8, 2024-3-1 20:01 , Processed in 0.244889 second(s), 29 queries , Gzip On.

Powered by Discuz! X3.2

© 2001-2013 Comsenz Inc.

快速回复 返回顶部 返回列表