梦幻天堂·龙网

 找回密码
 立即注册
查看: 6875|回复: 87

[最新电影龙网转发] 【龙网转发】【中国2023票房悬疑犯罪必看】【消失的她】【WebDL-2160p.MKV】【国语】

[复制链接]

2816

主题

3万

帖子

7万

积分

九鼎龙王·坛主

偶系漂漂滴龙民

Rank: 46Rank: 46Rank: 46Rank: 46Rank: 46Rank: 46

积分
75796

航子大神勋章

发表于 2023-11-12 19:19:06 | 显示全部楼层 |阅读模式
海报





译  名 消失的她/为单身汉设下的陷阱中国版
片  名 Lost in the Stars
年  代 2023
国  家 中国
类  别 悬疑/犯罪
语  言 汉语普通话
字  幕 中英硬字幕
评  分 6.2/10 from 871,759 users
链  接 https://movie.douban.com/subject/35660795
文件大小 3.43 GB
片  长 121 Min
导  演 崔睿 Rui Cui
     刘翔 Xiang Liu
主  演 朱一龙 Yilong Zhu
     倪妮 Ni Ni
     文咏珊 Janice Man
     杜江 Jiang Du
     黄子琪 Kay Huang
     柯国庆 Scotty Cox
     孟芷旭 Zhixu Meng
     张诣文含 Yiwenhan Zhang
     祝海钰 Haiyu Zhu
     于诚群 Chengqun Yu
     陈孟奇 Mengqi Chen

简介

  东南亚某国,年轻男子何非(朱一龙 饰)疯狂寻找失踪的妻子李木子,然而当地警局视若罔闻,令他出离愤怒。可就在某个清晨,何非突然发现身边躺着一名陌生女子,更令他毛骨悚然的是,女子居然声称是他的妻子李木子(文咏珊 饰)。慌乱之余,何找来华人警察郑成(杜江 饰),试图揭穿假冒者的骗局,谁知种种迹象表明,对面的陌生人真实不虚。隐隐之中,何非认为妻子被犯罪团伙绑架,他只得求助干练的金牌律师陈麦(倪妮 饰)追索真相。在调查中过程中,细微线索逐渐浮出水面,而更加黑暗的真相也开始暴露在阳光之下……

  本片改编自前苏联电影《为单身汉设下的陷阱》。

Video
Format                         : HEVC
Format/Info                    : High Efficiency Video Coding
Format profile                 : Main@L5@Main
Codec ID                       : V_MPEGH/ISO/HEVC
Duration                       : 2 h 1 min
Bit rate                       : 3 595 kb/s
Width                          : 3 840 pixels
Height                         : 1 608 pixels
Display aspect ratio           : 2.40:1
Frame rate mode                : Constant
Frame rate                     : 24.000 FPS
Color space                    : YUV
Chroma subsampling             : 4:2:0
Bit depth                      : 8 bits
Bits/(Pixel*Frame)             : 0.024
Stream size                    : 3.06 GiB (89%)

Audio
Format                         : E-AC-3 JOC
Format/Info                    : Enhanced AC-3 with Joint Object Coding
Commercial name                : Dolby Digital Plus with Dolby Atmos
Codec ID                       : A_EAC3
Duration                       : 2 h 1 min
Bit rate mode                  : Constant
Bit rate                       : 448 kb/s
Channel(s)                     : 6 channels
Channel layout                 : L R C LFE Ls Rs
Sampling rate                  : 48.0 kHz
Frame rate                     : 31.250 FPS (1536 SPF)
Compression mode               : Lossy
Stream size                    : 390 MiB (11%)
Language                       : Chinese
Service kind                   : Complete Main

截图




BT种子下载
梦幻天堂·龙网(www.LWgod.org).消失的她.为单身汉设下的陷阱中国版.torrent (24.22 KB, 下载次数: 2311)

评分

1

查看全部评分

2816

主题

3万

帖子

7万

积分

九鼎龙王·坛主

偶系漂漂滴龙民

Rank: 46Rank: 46Rank: 46Rank: 46Rank: 46Rank: 46

积分
75796

航子大神勋章

 楼主| 发表于 2023-11-12 19:33:46 | 显示全部楼层
  1. 【龙网转发】【中国2023票房悬疑犯罪必看】【消失的她】【WebDL-2160p.MKV】【国语】
复制代码

  1. 海报

  2. [img]http://img.longwangbt.com/-10-/11.12/x/00.jpg[/img]

  3. [img]http://img.longwangbt.com/-10-/11.12/x/01.jpg[/img]

  4. 译  名 消失的她/为单身汉设下的陷阱中国版
  5. 片  名 Lost in the Stars
  6. 年  代 2023
  7. 国  家 中国
  8. 类  别 悬疑/犯罪
  9. 语  言 汉语普通话
  10. 字  幕 中英硬字幕
  11. 评  分 6.2/10 from 871,759 users
  12. 链  接 [url=https://movie.douban.com/subject/35660795]https://movie.douban.com/subject/35660795[/url]
  13. 文件大小 3.43 GB
  14. 片  长 121 Min
  15. 导  演 崔睿 Rui Cui
  16.      刘翔 Xiang Liu
  17. 主  演 朱一龙 Yilong Zhu
  18.      倪妮 Ni Ni
  19.      文咏珊 Janice Man
  20.      杜江 Jiang Du
  21.      黄子琪 Kay Huang
  22.      柯国庆 Scotty Cox
  23.      孟芷旭 Zhixu Meng
  24.      张诣文含 Yiwenhan Zhang
  25.      祝海钰 Haiyu Zhu
  26.      于诚群 Chengqun Yu
  27.      陈孟奇 Mengqi Chen

  28. 简介

  29.   东南亚某国,年轻男子何非(朱一龙 饰)疯狂寻找失踪的妻子李木子,然而当地警局视若罔闻,令他出离愤怒。可就在某个清晨,何非突然发现身边躺着一名陌生女子,更令他毛骨悚然的是,女子居然声称是他的妻子李木子(文咏珊 饰)。慌乱之余,何找来华人警察郑成(杜江 饰),试图揭穿假冒者的骗局,谁知种种迹象表明,对面的陌生人真实不虚。隐隐之中,何非认为妻子被犯罪团伙绑架,他只得求助干练的金牌律师陈麦(倪妮 饰)追索真相。在调查中过程中,细微线索逐渐浮出水面,而更加黑暗的真相也开始暴露在阳光之下……

  30.   本片改编自前苏联电影《为单身汉设下的陷阱》。

  31. [quote][size=2]Video
  32. Format                         : HEVC
  33. Format/Info                    : High Efficiency Video Coding
  34. Format profile                 : Main@L5@Main
  35. Codec ID                       : V_MPEGH/ISO/HEVC
  36. Duration                       : 2 h 1 min
  37. Bit rate                       : 3 595 kb/s
  38. Width                          : 3 840 pixels
  39. Height                         : 1 608 pixels
  40. Display aspect ratio           : 2.40:1
  41. Frame rate mode                : Constant
  42. Frame rate                     : 24.000 FPS
  43. Color space                    : YUV
  44. Chroma subsampling             : 4:2:0
  45. Bit depth                      : 8 bits
  46. Bits/(Pixel*Frame)             : 0.024
  47. Stream size                    : 3.06 GiB (89%)

  48. Audio
  49. Format                         : E-AC-3 JOC
  50. Format/Info                    : Enhanced AC-3 with Joint Object Coding
  51. Commercial name                : Dolby Digital Plus with Dolby Atmos
  52. Codec ID                       : A_EAC3
  53. Duration                       : 2 h 1 min
  54. Bit rate mode                  : Constant
  55. Bit rate                       : 448 kb/s
  56. Channel(s)                     : 6 channels
  57. Channel layout                 : L R C LFE Ls Rs
  58. Sampling rate                  : 48.0 kHz
  59. Frame rate                     : 31.250 FPS (1536 SPF)
  60. Compression mode               : Lossy
  61. Stream size                    : 390 MiB (11%)
  62. Language                       : Chinese
  63. Service kind                   : Complete Main[/size][/quote]
  64. 截图

  65. [img]http://img.longwangbt.com/-10-/11.12/x/02.jpg[/img]
复制代码

0

主题

3640

帖子

4643

积分

赤血神龙

Rank: 20Rank: 20Rank: 20Rank: 20

积分
4643
发表于 2023-11-12 19:49:02 | 显示全部楼层
感谢航子分享精彩影片!支持支持

4

主题

47

帖子

370

积分

升龙霸·VIP

Rank: 22Rank: 22Rank: 22Rank: 22

积分
370

龙网VIP·银章

发表于 2023-11-12 19:55:41 | 显示全部楼层
感谢航子发片

19

主题

4万

帖子

6万

积分

天地独尊龙王

梦幻天使

Rank: 33Rank: 33Rank: 33Rank: 33Rank: 33

积分
62427
发表于 2023-11-12 20:05:39 | 显示全部楼层
非常感谢航子无私分享精彩影片!

0

主题

380

帖子

3302

积分

赤血神龙

Rank: 20Rank: 20Rank: 20Rank: 20

积分
3302
发表于 2023-11-12 20:33:19 | 显示全部楼层
楼主辛苦,多谢分享。

0

主题

28

帖子

462

积分

龙少爷

Rank: 10Rank: 10

积分
462
QQ
发表于 2023-11-12 20:39:38 | 显示全部楼层
谢谢航子,辛苦了

0

主题

69

帖子

149

积分

龙之子

Rank: 8Rank: 8Rank: 8Rank: 8

积分
149
发表于 2023-11-12 20:54:17 | 显示全部楼层
航子大大太给力了,加油!

0

主题

62

帖子

720

积分

霸王龙·贵宾

Rank: 18Rank: 18

积分
720
发表于 2023-11-12 21:13:45 | 显示全部楼层
航美快乐

2

主题

103

帖子

250

积分

升龙霸·VIP

Rank: 22Rank: 22Rank: 22Rank: 22

积分
250

龙网VIP·银章

发表于 2023-11-12 21:15:39 | 显示全部楼层
谢谢楼主分享

0

主题

781

帖子

1962

积分

神龙

Rank: 15Rank: 15Rank: 15

积分
1962
发表于 2023-11-12 21:22:44 | 显示全部楼层
感谢分享!棒棒哒!

1

主题

696

帖子

2401

积分

赤血神龙

Rank: 20Rank: 20Rank: 20Rank: 20

积分
2401
QQ
发表于 2023-11-12 21:38:59 | 显示全部楼层
终于可以收藏电影了

1

主题

456

帖子

1198

积分

神龙

Rank: 15Rank: 15Rank: 15

积分
1198
发表于 2023-11-12 21:45:50 | 显示全部楼层
十分激动,航子回归了,啊啊啊

1

主题

535

帖子

1981

积分

神龙

Rank: 15Rank: 15Rank: 15

积分
1981
发表于 2023-11-12 21:50:03 | 显示全部楼层
感谢航子的分享

0

主题

9265

帖子

9648

积分

海龙王

Rank: 25Rank: 25Rank: 25Rank: 25Rank: 25

积分
9648
发表于 2023-11-12 21:58:30 | 显示全部楼层
已在影院观看过了,虽然觉得不咋地,但是依然支持国产出品。感谢航子分享!
您需要登录后才可以回帖 登录 | 立即注册

本版积分规则

小黑屋|梦幻天堂·龙网

GMT+8, 2024-3-1 19:08 , Processed in 0.260451 second(s), 28 queries , Gzip On.

Powered by Discuz! X3.2

© 2001-2013 Comsenz Inc.

快速回复 返回顶部 返回列表