梦幻天堂·龙网

 找回密码
 立即注册
查看: 19632|回复: 242

[最新电影龙网转发] 【龙网转发】【2022】【奇异博士2:疯狂多元宇宙.IMAX版】【WebDL-1080p.MKV】【中字】

  [复制链接]

2746

主题

3万

帖子

7万

积分

九鼎龙王·坛主

偶系漂漂滴龙民

Rank: 46Rank: 46Rank: 46Rank: 46Rank: 46Rank: 46

积分
75482

航子大神勋章

发表于 2022-6-23 00:49:38 | 显示全部楼层 |阅读模式
海报





译  名 奇异博士2:疯狂多元宇宙/奇异博士2/奇异博士2:失控多重宇宙(台)/奇异博士2: 失控多元宇宙(港)
片  名 Doctor Strange in the Multiverse of Madness
年  代 2022
国  家 美国
类  别 动作/冒险/奇幻/恐怖
语  言 英语
字  幕 中简/中繁/英文
评  分 7.3/10 from 214,191 users
链  接 https://www.imdb.com/title/tt9419884
文件大小 7.30 GB
片  长 126 Min
导  演 山姆·雷米
主  演 本尼迪克特·康伯巴奇 Benedict Cumberbatch
     伊丽莎白·奥尔森 Elizabeth Olsen
     切瓦特·埃加福 Chiwetel Ejiofor
     本尼迪克特·王 Benedict Wong
     克索斯利尔·戈麦斯 Xochitl Gomez
     瑞秋·麦克亚当斯 Rachel McAdams
     迈克尔·斯图巴 Michael Stuhlbarg
     帕特里克·斯图尔特 Patrick Stewart
     海莉·阿特维尔 Hayley Atwell
     约翰·卡拉辛斯基 John Krasinski
     拉什纳·林奇 Lashana Lynch

简介

  故事承接《蜘蛛侠:英雄无归》,奇异博士无意中打开疯狂多元宇宙,事态失控,他去找红巫女旺达帮忙。切瓦特·埃加福特扮演的莫度告诉奇异博士,宇宙最大的威胁其实就是他自己:一个邪恶的奇异博士突然现身!

Video
Format                         : AVC
Format/Info                    : Advanced Video Codec
Format profile                 : High@L4
Format settings                : CABAC / 4 Ref Frames
Format settings, CABAC         : Yes
Format settings, Reference fra : 4 frames
Codec ID                       : V_MPEG4/ISO/AVC
Duration                       : 2 h 6 min
Bit rate mode                  : Variable
Bit rate                       : 7 488 kb/s
Maximum bit rate               : 12.7 Mb/s
Width                          : 1 920 pixels
Height                         : 1 080 pixels
Display aspect ratio           : 16:9
Frame rate mode                : Constant
Frame rate                     : 23.976 (24000/1001) FPS
Color space                    : YUV
Chroma subsampling             : 4:2:0
Bit depth                      : 8 bits
Scan type                      : Progressive
Bits/(Pixel*Frame)             : 0.151
Stream size                    : 6.62 GiB (91%)
Color range                    : Limited
Color primaries                : BT.709
Transfer characteristics       : BT.709
Matrix coefficients            : BT.709

Audio
Format                         : E-AC-3 JOC
Format/Info                    : Enhanced AC-3 with Joint Object Coding
Commercial name                : Dolby Digital Plus with Dolby Atmos
Codec ID                       : A_EAC3
Duration                       : 2 h 6 min
Bit rate mode                  : Constant
Bit rate                       : 768 kb/s
Channel(s)                     : 6 channels
Channel layout                 : L R C LFE Ls Rs
Sampling rate                  : 48.0 kHz
Frame rate                     : 31.250 FPS (1536 SPF)
Compression mode               : Lossy
Stream size                    : 695 MiB (9%)
Service kind                   : Complete Main
Complexity index               : 16
Number of dynamic objects      : 15
Bed channel count              : 1 channel
Bed channel configuration      : LFE

截图




BT种子下载
梦幻天堂·龙网(www.LWgod.org).奇异博士2:疯狂多元宇宙.IMAX版.torrent (37.84 KB, 下载次数: 15453)

2746

主题

3万

帖子

7万

积分

九鼎龙王·坛主

偶系漂漂滴龙民

Rank: 46Rank: 46Rank: 46Rank: 46Rank: 46Rank: 46

积分
75482

航子大神勋章

 楼主| 发表于 2022-6-23 01:11:11 | 显示全部楼层
  1. 【龙网转发】【2022】【奇异博士2:疯狂多元宇宙.IMAX版】【WebDL-1080p.MKV】【中字】
复制代码

  1. 海报

  2. [img]http://img.longwangbt.com/-10-/06.23/q/00.jpg[/img]

  3. [img]http://img.longwangbt.com/-10-/06.23/q/01.jpg[/img]

  4. 译  名 奇异博士2:疯狂多元宇宙/奇异博士2/奇异博士2:失控多重宇宙(台)/奇异博士2: 失控多元宇宙(港)
  5. 片  名 Doctor Strange in the Multiverse of Madness
  6. 年  代 2022
  7. 国  家 美国
  8. 类  别 动作/冒险/奇幻/恐怖
  9. 语  言 英语
  10. 字  幕 中简/中繁/英文
  11. 评  分 7.3/10 from 214,191 users
  12. 链  接 [url=http://www.lwgod.org]https://www.imdb.com/title/tt9419884[/url]
  13. 文件大小 7.30 GB
  14. 片  长 126 Min
  15. 导  演 山姆·雷米
  16. 主  演 本尼迪克特·康伯巴奇 Benedict Cumberbatch
  17.      伊丽莎白·奥尔森 Elizabeth Olsen
  18.      切瓦特·埃加福 Chiwetel Ejiofor
  19.      本尼迪克特·王 Benedict Wong
  20.      克索斯利尔·戈麦斯 Xochitl Gomez
  21.      瑞秋·麦克亚当斯 Rachel McAdams
  22.      迈克尔·斯图巴 Michael Stuhlbarg
  23.      帕特里克·斯图尔特 Patrick Stewart
  24.      海莉·阿特维尔 Hayley Atwell
  25.      约翰·卡拉辛斯基 John Krasinski
  26.      拉什纳·林奇 Lashana Lynch

  27. 简介

  28.   故事承接《蜘蛛侠:英雄无归》,奇异博士无意中打开疯狂多元宇宙,事态失控,他去找红巫女旺达帮忙。切瓦特·埃加福特扮演的莫度告诉奇异博士,宇宙最大的威胁其实就是他自己:一个邪恶的奇异博士突然现身!

  29. [quote][size=2]Video
  30. Format                         : AVC
  31. Format/Info                    : Advanced Video Codec
  32. Format profile                 : High@L4
  33. Format settings                : CABAC / 4 Ref Frames
  34. Format settings, CABAC         : Yes
  35. Format settings, Reference fra : 4 frames
  36. Codec ID                       : V_MPEG4/ISO/AVC
  37. Duration                       : 2 h 6 min
  38. Bit rate mode                  : Variable
  39. Bit rate                       : 7 488 kb/s
  40. Maximum bit rate               : 12.7 Mb/s
  41. Width                          : 1 920 pixels
  42. Height                         : 1 080 pixels
  43. Display aspect ratio           : 16:9
  44. Frame rate mode                : Constant
  45. Frame rate                     : 23.976 (24000/1001) FPS
  46. Color space                    : YUV
  47. Chroma subsampling             : 4:2:0
  48. Bit depth                      : 8 bits
  49. Scan type                      : Progressive
  50. Bits/(Pixel*Frame)             : 0.151
  51. Stream size                    : 6.62 GiB (91%)
  52. Color range                    : Limited
  53. Color primaries                : BT.709
  54. Transfer characteristics       : BT.709
  55. Matrix coefficients            : BT.709

  56. Audio
  57. Format                         : E-AC-3 JOC
  58. Format/Info                    : Enhanced AC-3 with Joint Object Coding
  59. Commercial name                : Dolby Digital Plus with Dolby Atmos
  60. Codec ID                       : A_EAC3
  61. Duration                       : 2 h 6 min
  62. Bit rate mode                  : Constant
  63. Bit rate                       : 768 kb/s
  64. Channel(s)                     : 6 channels
  65. Channel layout                 : L R C LFE Ls Rs
  66. Sampling rate                  : 48.0 kHz
  67. Frame rate                     : 31.250 FPS (1536 SPF)
  68. Compression mode               : Lossy
  69. Stream size                    : 695 MiB (9%)
  70. Service kind                   : Complete Main
  71. Complexity index               : 16
  72. Number of dynamic objects      : 15
  73. Bed channel count              : 1 channel
  74. Bed channel configuration      : LFE[/size][/quote]
  75. 截图

  76. [img]http://img.longwangbt.com/-10-/06.23/q/02.jpg[/img]
复制代码

1

主题

37

帖子

316

积分

龙少爷

Rank: 10Rank: 10

积分
316
发表于 2022-6-23 01:51:47 | 显示全部楼层
迅雷好像没速度

0

主题

1207

帖子

1907

积分

神龙

Rank: 15Rank: 15Rank: 15

积分
1907
发表于 2022-6-23 03:22:26 | 显示全部楼层
感谢航子分享精彩影片!

1

主题

1756

帖子

4620

积分

赤血神龙

Rank: 20Rank: 20Rank: 20Rank: 20

积分
4620
发表于 2022-6-23 06:31:05 | 显示全部楼层
感謝航子分享精彩奇幻電影!!

0

主题

36

帖子

72

积分

龙之子

Rank: 8Rank: 8Rank: 8Rank: 8

积分
72
发表于 2022-6-23 06:46:29 | 显示全部楼层
感谢楼主分享,赶上前几楼了

0

主题

175

帖子

1155

积分

神龙

Rank: 15Rank: 15Rank: 15

积分
1155
发表于 2022-6-23 07:40:43 | 显示全部楼层
感谢分享!!

1

主题

1383

帖子

2241

积分

赤血神龙

Rank: 20Rank: 20Rank: 20Rank: 20

积分
2241
发表于 2022-6-23 08:13:41 | 显示全部楼层
感谢航子分享

1

主题

580

帖子

2322

积分

赤血神龙

Rank: 20Rank: 20Rank: 20Rank: 20

积分
2322
发表于 2022-6-23 08:31:41 | 显示全部楼层
感谢航子分享精彩

0

主题

426

帖子

1679

积分

神龙

Rank: 15Rank: 15Rank: 15

积分
1679
发表于 2022-6-23 08:42:22 | 显示全部楼层
这个也太牛比了,谢谢美女!!
我爱看电影

0

主题

98

帖子

1213

积分

神龙

Rank: 15Rank: 15Rank: 15

积分
1213
发表于 2022-6-23 08:46:50 | 显示全部楼层
谢谢分享{:4_130:}{:4_130:}

0

主题

248

帖子

331

积分

龙少爷

Rank: 10Rank: 10

积分
331
发表于 2022-6-23 09:07:42 | 显示全部楼层
感谢楼主分享

13

主题

411

帖子

1065

积分

升龙霸·VIP

Rank: 22Rank: 22Rank: 22Rank: 22

积分
1065

龙网VIP·银牌龙网VIP·银章

发表于 2022-6-23 09:16:48 | 显示全部楼层
先预预热,期待航子小姐姐自己压得《奇异博士:2》,希望能加入台配国语!先谢谢航子兄弟了!

0

主题

21

帖子

121

积分

龙之子

Rank: 8Rank: 8Rank: 8Rank: 8

积分
121
发表于 2022-6-23 09:18:52 | 显示全部楼层
感谢分享精彩影片

0

主题

151

帖子

231

积分

龙少爷

Rank: 10Rank: 10

积分
231
发表于 2022-6-23 09:24:25 | 显示全部楼层

感谢分享精彩影片
您需要登录后才可以回帖 登录 | 立即注册

本版积分规则

小黑屋|梦幻天堂·龙网

GMT+8, 2022-7-5 15:16 , Processed in 0.246939 second(s), 26 queries , Gzip On.

Powered by Discuz! X3.2

© 2001-2013 Comsenz Inc.

快速回复 返回顶部 返回列表