梦幻天堂·龙网

 找回密码
 立即注册
查看: 15406|回复: 73

[最新电影龙网转发] 【龙网转发】【美2022锤哥主演犯罪科幻惊悚】【蜘蛛头】【WebDL-1080p.MKV】【中字】

[复制链接]

2746

主题

3万

帖子

7万

积分

九鼎龙王·坛主

偶系漂漂滴龙民

Rank: 46Rank: 46Rank: 46Rank: 46Rank: 46Rank: 46

积分
75482

航子大神勋章

发表于 2022-6-21 16:05:23 | 显示全部楼层 |阅读模式
海报



译  名 蜘蛛头/蜘蛛头监狱/逃离蜘蛛头
片  名 Spiderhead
年  代 2022
国  家 美国
类  别 犯罪/科幻/惊悚
语  言 英语
字  幕 中简/中繁/英文
评  分 5.4/10 from 15,498 users
链  接 https://www.imdb.com/title/tt9783600
文件大小 1.88 GB
片  长 106 Min
导  演 约瑟夫·科辛斯基 Joseph Kosinski
主  演 克里斯·海姆斯沃斯 Chris Hemsworth
     迈尔斯·特勒 Miles Teller
     朱尼·斯莫利特 Jurnee Smollett
     内森·琼斯 Nathan Jones
     泰丝·哈乌布里奇 Tess Haubrich
     查尔斯·帕内尔 Charles Parnell
     碧比·贝登科特 BeBe Bettencourt
     丹尼尔·博克 Daniel Booko
     安琪·米利肯 Angie Milliken
     乔伊·维埃拉 Joey Vieira

简介

  故事设定在近未来,那时候服刑的囚犯有机会通过自愿担任医疗实验对象的方式来减刑,主角是两个犯人,他们接受了情感扭转类药物实验,被迫与自己的过去作斗争,而他们所接受的实验和其机构被一个聪明的而有远见的人所管理着。

Video
Format                         : AVC
Format/Info                    : Advanced Video Codec
Format profile                 : Main@L4
Format settings                : CABAC / 3 Ref Frames
Format settings, CABAC         : Yes
Format settings, Reference fra : 3 frames
Codec ID                       : V_MPEG4/ISO/AVC
Duration                       : 1 h 47 min
Bit rate mode                  : Variable
Bit rate                       : 1 724 kb/s
Nominal bit rate               : 2 104 kb/s
Maximum bit rate               : 3 915 kb/s
Width                          : 1 920 pixels
Height                         : 1 080 pixels
Display aspect ratio           : 16:9
Frame rate mode                : Constant
Frame rate                     : 24.000 FPS
Color space                    : YUV
Chroma subsampling             : 4:2:0
Bit depth                      : 8 bits
Scan type                      : Progressive
Bits/(Pixel*Frame)             : 0.035
Stream size                    : 1.29 GiB (69%)

Audio
Format                         : E-AC-3 JOC
Format/Info                    : Enhanced AC-3 with Joint Object Coding
Commercial name                : Dolby Digital Plus with Dolby Atmos
Codec ID                       : A_EAC3
Duration                       : 1 h 47 min
Bit rate mode                  : Constant
Bit rate                       : 768 kb/s
Channel(s)                     : 6 channels
Channel layout                 : L R C LFE Ls Rs
Sampling rate                  : 48.0 kHz
Frame rate                     : 31.250 FPS (1536 SPF)
Compression mode               : Lossy
Stream size                    : 589 MiB (31%)
Service kind                   : Complete Main
Complexity index               : 16
Number of dynamic objects      : 15
Bed channel count              : 1 channel
Bed channel configuration      : LFE

截图




BT种子下载
梦幻天堂·龙网(www.LWgod.org).蜘蛛头.蜘蛛头监狱.torrent (38.89 KB, 下载次数: 2941)

2746

主题

3万

帖子

7万

积分

九鼎龙王·坛主

偶系漂漂滴龙民

Rank: 46Rank: 46Rank: 46Rank: 46Rank: 46Rank: 46

积分
75482

航子大神勋章

 楼主| 发表于 2022-6-21 16:29:28 | 显示全部楼层
  1. 【龙网转发】【美2022锤哥主演犯罪科幻惊悚】【蜘蛛头】【WebDL-1080p.MKV】【中字】
复制代码

  1. 海报

  2. [img]http://img.longwangbt.com/-10-/06.21/z/00.jpg[/img]

  3. 译  名 蜘蛛头/蜘蛛头监狱/逃离蜘蛛头
  4. 片  名 Spiderhead
  5. 年  代 2022
  6. 国  家 美国
  7. 类  别 犯罪/科幻/惊悚
  8. 语  言 英语
  9. 字  幕 中简/中繁/英文
  10. 评  分 5.4/10 from 15,498 users
  11. 链  接 [url=http://www.lwgod.org]https://www.imdb.com/title/tt9783600[/url]
  12. 文件大小 1.88 GB
  13. 片  长 106 Min
  14. 导  演 约瑟夫·科辛斯基 Joseph Kosinski
  15. 主  演 克里斯·海姆斯沃斯 Chris Hemsworth
  16.      迈尔斯·特勒 Miles Teller
  17.      朱尼·斯莫利特 Jurnee Smollett
  18.      内森·琼斯 Nathan Jones
  19.      泰丝·哈乌布里奇 Tess Haubrich
  20.      查尔斯·帕内尔 Charles Parnell
  21.      碧比·贝登科特 BeBe Bettencourt
  22.      丹尼尔·博克 Daniel Booko
  23.      安琪·米利肯 Angie Milliken
  24.      乔伊·维埃拉 Joey Vieira

  25. 简介

  26.   故事设定在近未来,那时候服刑的囚犯有机会通过自愿担任医疗实验对象的方式来减刑,主角是两个犯人,他们接受了情感扭转类药物实验,被迫与自己的过去作斗争,而他们所接受的实验和其机构被一个聪明的而有远见的人所管理着。

  27. [quote][size=2]Video
  28. Format                         : AVC
  29. Format/Info                    : Advanced Video Codec
  30. Format profile                 : Main@L4
  31. Format settings                : CABAC / 3 Ref Frames
  32. Format settings, CABAC         : Yes
  33. Format settings, Reference fra : 3 frames
  34. Codec ID                       : V_MPEG4/ISO/AVC
  35. Duration                       : 1 h 47 min
  36. Bit rate mode                  : Variable
  37. Bit rate                       : 1 724 kb/s
  38. Nominal bit rate               : 2 104 kb/s
  39. Maximum bit rate               : 3 915 kb/s
  40. Width                          : 1 920 pixels
  41. Height                         : 1 080 pixels
  42. Display aspect ratio           : 16:9
  43. Frame rate mode                : Constant
  44. Frame rate                     : 24.000 FPS
  45. Color space                    : YUV
  46. Chroma subsampling             : 4:2:0
  47. Bit depth                      : 8 bits
  48. Scan type                      : Progressive
  49. Bits/(Pixel*Frame)             : 0.035
  50. Stream size                    : 1.29 GiB (69%)

  51. Audio
  52. Format                         : E-AC-3 JOC
  53. Format/Info                    : Enhanced AC-3 with Joint Object Coding
  54. Commercial name                : Dolby Digital Plus with Dolby Atmos
  55. Codec ID                       : A_EAC3
  56. Duration                       : 1 h 47 min
  57. Bit rate mode                  : Constant
  58. Bit rate                       : 768 kb/s
  59. Channel(s)                     : 6 channels
  60. Channel layout                 : L R C LFE Ls Rs
  61. Sampling rate                  : 48.0 kHz
  62. Frame rate                     : 31.250 FPS (1536 SPF)
  63. Compression mode               : Lossy
  64. Stream size                    : 589 MiB (31%)
  65. Service kind                   : Complete Main
  66. Complexity index               : 16
  67. Number of dynamic objects      : 15
  68. Bed channel count              : 1 channel
  69. Bed channel configuration      : LFE[/size][/quote]
  70. 截图

  71. [img]http://img.longwangbt.com/-10-/06.21/z/01.jpg[/img]
复制代码

0

主题

129

帖子

274

积分

龙少爷

Rank: 10Rank: 10

积分
274
发表于 2022-6-21 18:18:54 | 显示全部楼层

感谢航子辛苦发片~!

0

主题

50

帖子

249

积分

龙少爷

Rank: 10Rank: 10

积分
249
发表于 2022-6-21 19:15:28 | 显示全部楼层
感谢楼主的无私奉献

1

主题

597

帖子

1688

积分

神龙

Rank: 15Rank: 15Rank: 15

积分
1688
发表于 2022-6-21 20:06:18 | 显示全部楼层
感谢航子发片

1

主题

230

帖子

637

积分

龙的传人

Rank: 13Rank: 13Rank: 13

积分
637
发表于 2022-6-21 20:16:08 | 显示全部楼层
感谢航子发片{:4_130:}
ABR告诉我:没有行动的远见是白日梦,没有远见的行动是恶梦。

0

主题

248

帖子

331

积分

龙少爷

Rank: 10Rank: 10

积分
331
发表于 2022-6-21 20:27:40 | 显示全部楼层
感谢楼主分享

0

主题

350

帖子

1695

积分

神龙

Rank: 15Rank: 15Rank: 15

积分
1695
发表于 2022-6-21 20:29:06 | 显示全部楼层
锤哥的片子还是不错的,谢谢分享

0

主题

2333

帖子

3714

积分

赤血神龙

Rank: 20Rank: 20Rank: 20Rank: 20

积分
3714
发表于 2022-6-21 20:34:21 | 显示全部楼层
感谢分享 下载收藏了

2

主题

1万

帖子

1万

积分

神界龙王

Rank: 30Rank: 30Rank: 30Rank: 30

积分
15665
QQ
发表于 2022-6-21 20:52:36 | 显示全部楼层
多谢分享

0

主题

7114

帖子

7335

积分

霸王龙·贵宾

狱血黑龙

Rank: 18Rank: 18

积分
7335
发表于 2022-6-21 21:14:27 | 显示全部楼层
感谢航子的好片分享,支持支持
当你不再拥有的时候,你唯一可以做的,就是令自己不要忘记!

0

主题

6

帖子

38

积分

泡泡龙

Rank: 5Rank: 5Rank: 5

积分
38
发表于 2022-6-21 21:18:16 | 显示全部楼层
感谢好片,锤哥,喜欢!

0

主题

459

帖子

627

积分

龙的传人

Rank: 13Rank: 13Rank: 13

积分
627
发表于 2022-6-21 21:21:49 | 显示全部楼层
感谢航子分享!

1

主题

396

帖子

1015

积分

神龙

Rank: 15Rank: 15Rank: 15

积分
1015
发表于 2022-6-21 21:43:15 | 显示全部楼层
谢谢你的影片

0

主题

3961

帖子

5561

积分

海龙王

Rank: 25Rank: 25Rank: 25Rank: 25Rank: 25

积分
5561
发表于 2022-6-21 22:18:24 | 显示全部楼层
感谢航子的分享
您需要登录后才可以回帖 登录 | 立即注册

本版积分规则

小黑屋|梦幻天堂·龙网

GMT+8, 2022-7-5 15:09 , Processed in 0.265473 second(s), 27 queries , Gzip On.

Powered by Discuz! X3.2

© 2001-2013 Comsenz Inc.

快速回复 返回顶部 返回列表