梦幻天堂·龙网

 找回密码
 立即注册
查看: 7730|回复: 81

[最新剧集龙网转发] 【龙网转发】【2021】【爱,死亡和机器人.第二季.全8集】【WebDL-1080p.MKV】【中字】

[复制链接]

2746

主题

3万

帖子

7万

积分

九鼎龙王·坛主

偶系漂漂滴龙民

Rank: 46Rank: 46Rank: 46Rank: 46Rank: 46Rank: 46

积分
75482

航子大神勋章

发表于 2022-6-20 21:56:34 | 显示全部楼层 |阅读模式
海报



译  名 爱,死亡和机器人 第二季/爱 · 死 · 机械人(港)/爱 x 死 x 机器人(台)/爱、死亡 + 机器人/爱、死亡 & 机器人
片  名 Love, Death & Robots Season 2
年  代 2021
国  家 美国
类  别 动画/科幻/奇幻/恐怖/短片
语  言 英语
字  幕 中简/中繁/英文
评  分 6.8/10 from 186,679 users
链  接 https://movie.douban.com/subject/34418203
文件大小 3.60 GB
单集片长 10 Min
集  数 8
导  演 蒂姆·米勒 Tim Miller
     肉食部门 Meat Dept
     罗伯特·瓦利 Robert Valley
     吕寅荣 Jennifer Yuh
     里昂·贝雷尔 Leon Berelle
     多米尼克·博伊丁 Dominique Boidin
     雷米·科季拉 Remi Kozyra
     马克西姆·卢埃尔 Maxime Luere
     西蒙·奥托 Simon Otto
     艾略特·迪尔 Elliot Dear
     亚历克斯·比蒂 Alex Beaty
主  演 诺兰·诺斯 Nolan North
     艾米丽·奥布莱恩 Emily O'Brien
     艾洛蒂·袁 Elodie Yung
     艾克·阿玛迪 Ike Amadi
     米歇尔·C·博尼拉 Michelle C. Bonilla
     诺希尔·达拉尔 Noshir Dalal
     安德鲁·霍克斯 Andrew Hawkes
     德博拉·卡尔多纳 Debra Cardona
     阿亚娜·哈威夫 Ayana Haviv
     史蒂文·佩西 Steven Pacey
     乔恩尼·赫恩 Jonnie Hurn

简介

  《爱,死亡和机器人》是一部动画短片合集,涵盖科幻、奇幻、恐怖和喜剧等题材。每集都采用大胆的叙事手法,故事好看易懂,令人印象深刻。由大卫·芬奇、蒂姆·米勒、珍妮弗·米勒和乔希·多宁担任监制,汇集了世界级的动画创作者和精彩的故事,定会为观众带来独特、震撼人心的观看体验。

Video
Format                         : AVC
Format/Info                    : Advanced Video Codec
Format profile                 : High@L4
Format settings                : CABAC / 4 Ref Frames
Format settings, CABAC         : Yes
Format settings, Reference fra : 4 frames
Codec ID                       : V_MPEG4/ISO/AVC
Duration                       : 12 min 35 s
Bit rate mode                  : Variable
Bit rate                       : 2 802 kb/s
Maximum bit rate               : 20.0 Mb/s
Width                          : 1 920 pixels
Height                         : 1 080 pixels
Display aspect ratio           : 16:9
Frame rate mode                : Constant
Frame rate                     : 24.000 FPS
Color space                    : YUV
Chroma subsampling             : 4:2:0
Bit depth                      : 8 bits
Scan type                      : Progressive
Bits/(Pixel*Frame)             : 0.056
Stream size                    : 252 MiB (75%)

Audio
Format                         : E-AC-3 JOC
Format/Info                    : Enhanced AC-3 with Joint Object Coding
Commercial name                : Dolby Digital Plus with Dolby Atmos
Codec ID                       : A_EAC3
Duration                       : 12 min 36 s
Bit rate mode                  : Constant
Bit rate                       : 768 kb/s
Channel(s)                     : 6 channels
Channel layout                 : L R C LFE Ls Rs
Sampling rate                  : 48.0 kHz
Frame rate                     : 31.250 FPS (1536 SPF)
Compression mode               : Lossy
Stream size                    : 69.3 MiB (21%)
Service kind                   : Complete Main
Complexity index               : 16
Number of dynamic objects      : 15
Bed channel count              : 1 channel
Bed channel configuration      : LFE

截图






BT种子下载
梦幻天堂·龙网(www.LWgod.org).爱,死亡和机器人.第二季.全8集.torrent (26.12 KB, 下载次数: 3424)

2746

主题

3万

帖子

7万

积分

九鼎龙王·坛主

偶系漂漂滴龙民

Rank: 46Rank: 46Rank: 46Rank: 46Rank: 46Rank: 46

积分
75482

航子大神勋章

 楼主| 发表于 2022-6-20 22:16:19 | 显示全部楼层
  1. 【龙网转发】【2021】【爱,死亡和机器人.第二季.全8集】【WebDL-1080p.MKV】【中字】
复制代码

  1. 海报

  2. [img]http://img.longwangbt.com/-10-/06.20/a/00.jpg[/img]

  3. 译  名 爱,死亡和机器人 第二季/爱 · 死 · 机械人(港)/爱 x 死 x 机器人(台)/爱、死亡 + 机器人/爱、死亡 & 机器人
  4. 片  名 Love, Death & Robots Season 2
  5. 年  代 2021
  6. 国  家 美国
  7. 类  别 动画/科幻/奇幻/恐怖/短片
  8. 语  言 英语
  9. 字  幕 中简/中繁/英文
  10. 评  分 6.8/10 from 186,679 users
  11. 链  接 [url=http://www.lwgod.org]https://movie.douban.com/subject/34418203[/url]
  12. 文件大小 3.60 GB
  13. 单集片长 10 Min
  14. 集  数 8
  15. 导  演 蒂姆·米勒 Tim Miller
  16.      肉食部门 Meat Dept
  17.      罗伯特·瓦利 Robert Valley
  18.      吕寅荣 Jennifer Yuh
  19.      里昂·贝雷尔 Leon Berelle
  20.      多米尼克·博伊丁 Dominique Boidin
  21.      雷米·科季拉 Remi Kozyra
  22.      马克西姆·卢埃尔 Maxime Luere
  23.      西蒙·奥托 Simon Otto
  24.      艾略特·迪尔 Elliot Dear
  25.      亚历克斯·比蒂 Alex Beaty
  26. 主  演 诺兰·诺斯 Nolan North
  27.      艾米丽·奥布莱恩 Emily O'Brien
  28.      艾洛蒂·袁 Elodie Yung
  29.      艾克·阿玛迪 Ike Amadi
  30.      米歇尔·C·博尼拉 Michelle C. Bonilla
  31.      诺希尔·达拉尔 Noshir Dalal
  32.      安德鲁·霍克斯 Andrew Hawkes
  33.      德博拉·卡尔多纳 Debra Cardona
  34.      阿亚娜·哈威夫 Ayana Haviv
  35.      史蒂文·佩西 Steven Pacey
  36.      乔恩尼·赫恩 Jonnie Hurn

  37. 简介

  38.   《爱,死亡和机器人》是一部动画短片合集,涵盖科幻、奇幻、恐怖和喜剧等题材。每集都采用大胆的叙事手法,故事好看易懂,令人印象深刻。由大卫·芬奇、蒂姆·米勒、珍妮弗·米勒和乔希·多宁担任监制,汇集了世界级的动画创作者和精彩的故事,定会为观众带来独特、震撼人心的观看体验。

  39. [quote][size=2]Video
  40. Format                         : AVC
  41. Format/Info                    : Advanced Video Codec
  42. Format profile                 : High@L4
  43. Format settings                : CABAC / 4 Ref Frames
  44. Format settings, CABAC         : Yes
  45. Format settings, Reference fra : 4 frames
  46. Codec ID                       : V_MPEG4/ISO/AVC
  47. Duration                       : 12 min 35 s
  48. Bit rate mode                  : Variable
  49. Bit rate                       : 2 802 kb/s
  50. Maximum bit rate               : 20.0 Mb/s
  51. Width                          : 1 920 pixels
  52. Height                         : 1 080 pixels
  53. Display aspect ratio           : 16:9
  54. Frame rate mode                : Constant
  55. Frame rate                     : 24.000 FPS
  56. Color space                    : YUV
  57. Chroma subsampling             : 4:2:0
  58. Bit depth                      : 8 bits
  59. Scan type                      : Progressive
  60. Bits/(Pixel*Frame)             : 0.056
  61. Stream size                    : 252 MiB (75%)

  62. Audio
  63. Format                         : E-AC-3 JOC
  64. Format/Info                    : Enhanced AC-3 with Joint Object Coding
  65. Commercial name                : Dolby Digital Plus with Dolby Atmos
  66. Codec ID                       : A_EAC3
  67. Duration                       : 12 min 36 s
  68. Bit rate mode                  : Constant
  69. Bit rate                       : 768 kb/s
  70. Channel(s)                     : 6 channels
  71. Channel layout                 : L R C LFE Ls Rs
  72. Sampling rate                  : 48.0 kHz
  73. Frame rate                     : 31.250 FPS (1536 SPF)
  74. Compression mode               : Lossy
  75. Stream size                    : 69.3 MiB (21%)
  76. Service kind                   : Complete Main
  77. Complexity index               : 16
  78. Number of dynamic objects      : 15
  79. Bed channel count              : 1 channel
  80. Bed channel configuration      : LFE[/size][/quote]
  81. 截图

  82. [img]http://img.longwangbt.com/-10-/06.20/a/01.jpg[/img]

  83. [img]http://img.longwangbt.com/-10-/06.20/a/02.jpg[/img]
复制代码

1

主题

7

帖子

24

积分

泡泡龙

Rank: 5Rank: 5Rank: 5

积分
24
发表于 2022-6-20 22:28:06 | 显示全部楼层
咦?刚刚我记得这个打不开的

1

主题

1355

帖子

3678

积分

赤血神龙

Rank: 20Rank: 20Rank: 20Rank: 20

积分
3678
QQ
发表于 2022-6-20 23:18:36 | 显示全部楼层
tks for share,,,,,,,,,,,,,,,,

0

主题

170

帖子

2083

积分

赤血神龙

Rank: 20Rank: 20Rank: 20Rank: 20

积分
2083
发表于 2022-6-21 00:13:12 | 显示全部楼层
感谢航子辛苦发片~!

0

主题

2582

帖子

4272

积分

赤血神龙

Rank: 20Rank: 20Rank: 20Rank: 20

积分
4272
发表于 2022-6-21 01:28:47 | 显示全部楼层
感谢航子分享

0

主题

643

帖子

2033

积分

赤血神龙

Rank: 20Rank: 20Rank: 20Rank: 20

积分
2033
发表于 2022-6-21 04:51:06 | 显示全部楼层
感谢你的分享

1

主题

1756

帖子

4620

积分

赤血神龙

Rank: 20Rank: 20Rank: 20Rank: 20

积分
4620
发表于 2022-6-21 06:54:13 | 显示全部楼层
感謝航子分享精彩影集!!

0

主题

576

帖子

1379

积分

神龙

Rank: 15Rank: 15Rank: 15

积分
1379
发表于 2022-6-21 06:56:34 | 显示全部楼层
tks for share,,,,,,,,,,,,,

0

主题

976

帖子

3513

积分

赤血神龙

Rank: 20Rank: 20Rank: 20Rank: 20

积分
3513
发表于 2022-6-21 07:59:28 | 显示全部楼层
感謝航子的分享.

0

主题

2183

帖子

4055

积分

赤血神龙

Rank: 20Rank: 20Rank: 20Rank: 20

积分
4055
QQ
发表于 2022-6-21 08:18:08 | 显示全部楼层
感谢航子分享
一切终会过去

4

主题

495

帖子

2403

积分

升龙霸·VIP

Rank: 22Rank: 22Rank: 22Rank: 22

积分
2403

龙网VIP·银章

发表于 2022-6-21 08:18:13 | 显示全部楼层
谢谢分享,这个系列只有第一季最好看

0

主题

2470

帖子

4355

积分

赤血神龙

Rank: 20Rank: 20Rank: 20Rank: 20

积分
4355
发表于 2022-6-21 08:43:30 | 显示全部楼层
感谢航子分享

0

主题

757

帖子

1848

积分

神龙

Rank: 15Rank: 15Rank: 15

积分
1848
发表于 2022-6-21 08:57:16 | 显示全部楼层
感谢航子辛苦发片

0

主题

1万

帖子

1万

积分

神界龙王

Rank: 30Rank: 30Rank: 30Rank: 30

积分
14552
发表于 2022-6-21 09:46:09 | 显示全部楼层
第二季茶类单!!!!!!!!!!!!!!!!!!!!!
您需要登录后才可以回帖 登录 | 立即注册

本版积分规则

小黑屋|梦幻天堂·龙网

GMT+8, 2022-7-5 15:09 , Processed in 0.260591 second(s), 27 queries , Gzip On.

Powered by Discuz! X3.2

© 2001-2013 Comsenz Inc.

快速回复 返回顶部 返回列表