梦幻天堂·龙网

 找回密码
 立即注册
查看: 8577|回复: 38

[最新电影龙网转发] 【龙网转发】【中国2022最新感人励志】【出拳吧,妈妈】【WebDL-2160p.MKV】【国语】

[复制链接]

2746

主题

3万

帖子

7万

积分

九鼎龙王·坛主

偶系漂漂滴龙民

Rank: 46Rank: 46Rank: 46Rank: 46Rank: 46Rank: 46

积分
75482

航子大神勋章

发表于 2022-6-19 12:33:47 | 显示全部楼层 |阅读模式
海报



译  名 出拳吧,妈妈/全心爱你/拳心爱你
片  名 Shallow
年  代 2022
国  家 中国
类  别 剧情/运动
语  言 汉语普通话
字  幕 中文硬字幕
评  分 5.1/10 from 2,306 users
链  接 https://movie.douban.com/subject/35198422
文件大小 4.44 GB
片  长 96 Min
导  演 唐晓白 Xiaobai Tang
主  演 谭卓 Zhuo Tan
     田雨 Yu Tian
     田海蓉 Hairong Tian
     郭唐维 Tangwei Guo
     赵诗朦 Shimeng Zhao
     陈明昊 Minghao Chen
     魏中凯 Zhongkai Wei
     李俊墨 Junmo Li
     孙正霖 Zhenglin Sun
     赵铭岳 Mingyue Zhao
     刘林城 Lincheng Liu

简介

  丧到家的人生难道翻盘不出高光时刻了吗?白杨(谭卓 饰)是一个性格倔强、坚守内心原则的年轻妈妈;几年前因一时冲动失去所有、母子分离,孩子被迫交给姐姐(田海蓉 饰)扶养;直到遇见性格奇葩、舌毒心暖的男人沈浩(田雨 饰),在他的帮助下,白杨重新燃起了斗志,痛下决心夺回失去的一切。而前方等着白杨的,却完全超乎了她的想象……

Video
Format                         : HEVC
Format/Info                    : High Efficiency Video Coding
Format profile                 : Main 10 @ L5.1 @ Main
Codec ID                       : V_MPEGH/ISO/HEVC
Duration                       : 1 h 35 min
Bit rate                       : 6 416 kb/s
Width                          : 3 840 pixels
Height                         : 1 604 pixels
Display aspect ratio           : 2.40:1
Frame rate mode                : Constant
Frame rate                     : 60.000 FPS
Color space                    : YUV
Chroma subsampling             : 4:2:0
Bit depth                      : 10 bits
Bits/(Pixel*Frame)             : 0.017
Stream size                    : 4.27 GiB (96%)
Color range                    : Limited
Color primaries                : BT.709
Transfer characteristics       : BT.709
Matrix coefficients            : BT.709

Audio
Format                         : E-AC-3
Format/Info                    : Enhanced AC-3
Commercial name                : Dolby Digital Plus
Codec ID                       : A_EAC3
Duration                       : 1 h 35 min
Bit rate mode                  : Constant
Bit rate                       : 256 kb/s
Channel(s)                     : 6 channels
Channel layout                 : L R C LFE Ls Rs
Sampling rate                  : 48.0 kHz
Frame rate                     : 31.250 FPS (1536 SPF)
Compression mode               : Lossy
Stream size                    : 175 MiB (4%)
Service kind                   : Complete Main

截图




BT种子下载
梦幻天堂·龙网(www.LWgod.org).出拳吧,妈妈.torrent (23.48 KB, 下载次数: 1342)

2746

主题

3万

帖子

7万

积分

九鼎龙王·坛主

偶系漂漂滴龙民

Rank: 46Rank: 46Rank: 46Rank: 46Rank: 46Rank: 46

积分
75482

航子大神勋章

 楼主| 发表于 2022-6-19 12:55:56 | 显示全部楼层
  1. 【龙网转发】【中国2022最新感人励志】【出拳吧,妈妈】【WebDL-2160p.MKV】【国语】
复制代码

  1. 海报

  2. [img]http://img.longwangbt.com/-10-/06.19/c/00.jpg[/img]

  3. 译  名 出拳吧,妈妈/全心爱你/拳心爱你
  4. 片  名 Shallow
  5. 年  代 2022
  6. 国  家 中国
  7. 类  别 剧情/运动
  8. 语  言 汉语普通话
  9. 字  幕 中文硬字幕
  10. 评  分 5.1/10 from 2,306 users
  11. 链  接 [url=http://www.lwgod.org]https://movie.douban.com/subject/35198422[/url]
  12. 文件大小 4.44 GB
  13. 片  长 96 Min
  14. 导  演 唐晓白 Xiaobai Tang
  15. 主  演 谭卓 Zhuo Tan
  16.      田雨 Yu Tian
  17.      田海蓉 Hairong Tian
  18.      郭唐维 Tangwei Guo
  19.      赵诗朦 Shimeng Zhao
  20.      陈明昊 Minghao Chen
  21.      魏中凯 Zhongkai Wei
  22.      李俊墨 Junmo Li
  23.      孙正霖 Zhenglin Sun
  24.      赵铭岳 Mingyue Zhao
  25.      刘林城 Lincheng Liu

  26. 简介

  27.   丧到家的人生难道翻盘不出高光时刻了吗?白杨(谭卓 饰)是一个性格倔强、坚守内心原则的年轻妈妈;几年前因一时冲动失去所有、母子分离,孩子被迫交给姐姐(田海蓉 饰)扶养;直到遇见性格奇葩、舌毒心暖的男人沈浩(田雨 饰),在他的帮助下,白杨重新燃起了斗志,痛下决心夺回失去的一切。而前方等着白杨的,却完全超乎了她的想象……

  28. [quote][size=2]Video
  29. Format                         : HEVC
  30. Format/Info                    : High Efficiency Video Coding
  31. Format profile                 : Main 10 @ L5.1 @ Main
  32. Codec ID                       : V_MPEGH/ISO/HEVC
  33. Duration                       : 1 h 35 min
  34. Bit rate                       : 6 416 kb/s
  35. Width                          : 3 840 pixels
  36. Height                         : 1 604 pixels
  37. Display aspect ratio           : 2.40:1
  38. Frame rate mode                : Constant
  39. Frame rate                     : 60.000 FPS
  40. Color space                    : YUV
  41. Chroma subsampling             : 4:2:0
  42. Bit depth                      : 10 bits
  43. Bits/(Pixel*Frame)             : 0.017
  44. Stream size                    : 4.27 GiB (96%)
  45. Color range                    : Limited
  46. Color primaries                : BT.709
  47. Transfer characteristics       : BT.709
  48. Matrix coefficients            : BT.709

  49. Audio
  50. Format                         : E-AC-3
  51. Format/Info                    : Enhanced AC-3
  52. Commercial name                : Dolby Digital Plus
  53. Codec ID                       : A_EAC3
  54. Duration                       : 1 h 35 min
  55. Bit rate mode                  : Constant
  56. Bit rate                       : 256 kb/s
  57. Channel(s)                     : 6 channels
  58. Channel layout                 : L R C LFE Ls Rs
  59. Sampling rate                  : 48.0 kHz
  60. Frame rate                     : 31.250 FPS (1536 SPF)
  61. Compression mode               : Lossy
  62. Stream size                    : 175 MiB (4%)
  63. Service kind                   : Complete Main[/size][/quote]
  64. 截图

  65. [img]http://img.longwangbt.com/-10-/06.19/c/01.jpg[/img]
复制代码

1

主题

597

帖子

1688

积分

神龙

Rank: 15Rank: 15Rank: 15

积分
1688
发表于 2022-6-19 13:45:34 | 显示全部楼层
沙发真舒服

0

主题

8217

帖子

7948

积分

海龙王

Rank: 25Rank: 25Rank: 25Rank: 25Rank: 25

积分
7948
发表于 2022-6-19 14:26:48 | 显示全部楼层
国产运动类型影片,国产很少拍这类影片的,希望是一部优秀的国产运动电影。感谢航子分享!

0

主题

245

帖子

327

积分

龙少爷

Rank: 10Rank: 10

积分
327
发表于 2022-6-19 14:33:34 | 显示全部楼层
感谢楼主分享

0

主题

2582

帖子

4272

积分

赤血神龙

Rank: 20Rank: 20Rank: 20Rank: 20

积分
4272
发表于 2022-6-19 15:11:12 | 显示全部楼层
感谢航子分享

0

主题

878

帖子

2005

积分

赤血神龙

Rank: 20Rank: 20Rank: 20Rank: 20

积分
2005

龙网爱心勋章

发表于 2022-6-19 15:53:21 | 显示全部楼层
航子辛苦……

1

主题

1355

帖子

3678

积分

赤血神龙

Rank: 20Rank: 20Rank: 20Rank: 20

积分
3678
QQ
发表于 2022-6-19 16:38:45 | 显示全部楼层
tks for share,,,,,,,,,,,,,,

0

主题

203

帖子

2547

积分

赤血神龙

Rank: 20Rank: 20Rank: 20Rank: 20

积分
2547
发表于 2022-6-19 18:10:47 | 显示全部楼层
楼主辛苦,多谢分享。

4

主题

1万

帖子

1万

积分

神界龙王

Rank: 30Rank: 30Rank: 30Rank: 30

积分
17467
发表于 2022-6-19 21:00:27 | 显示全部楼层
谢谢楼主分享好电影

467

主题

1万

帖子

1万

积分

神界龙王

Rank: 30Rank: 30Rank: 30Rank: 30

积分
19747

龙网爱心勋章

发表于 2022-6-19 21:43:21 | 显示全部楼层
感谢楼主分享

1

主题

591

帖子

953

积分

龙的传人

Rank: 13Rank: 13Rank: 13

积分
953
发表于 2022-6-19 22:08:55 | 显示全部楼层
楼主辛苦,多谢分享。

1

主题

1万

帖子

2万

积分

神界龙王

Rank: 30Rank: 30Rank: 30Rank: 30

积分
20937

龙网爱心勋章

发表于 2022-6-19 23:05:35 | 显示全部楼层

楼主辛苦,多谢分享。
笑看红尘

0

主题

7114

帖子

7335

积分

霸王龙·贵宾

狱血黑龙

Rank: 18Rank: 18

积分
7335
发表于 2022-6-20 01:45:28 | 显示全部楼层
感谢航子的好片分享,支持支持
当你不再拥有的时候,你唯一可以做的,就是令自己不要忘记!

2

主题

967

帖子

2042

积分

升龙霸·VIP

Rank: 22Rank: 22Rank: 22Rank: 22

积分
2042

龙网VIP·银星龙网VIP·银牌

发表于 2022-6-20 01:47:17 | 显示全部楼层
航子辛苦
您需要登录后才可以回帖 登录 | 立即注册

本版积分规则

小黑屋|梦幻天堂·龙网

GMT+8, 2022-7-5 14:08 , Processed in 0.188648 second(s), 27 queries , Gzip On.

Powered by Discuz! X3.2

© 2001-2013 Comsenz Inc.

快速回复 返回顶部 返回列表