梦幻天堂·龙网

 找回密码
 立即注册
查看: 8837|回复: 74

[最新电影龙网转发] 【龙网转发】【美2022篮球迷必看热血好片】【必胜球探】【WebDL-1080p.MKV】【中字】

[复制链接]

2746

主题

3万

帖子

7万

积分

九鼎龙王·坛主

偶系漂漂滴龙民

Rank: 46Rank: 46Rank: 46Rank: 46Rank: 46Rank: 46

积分
75482

航子大神勋章

发表于 2022-6-17 16:40:54 | 显示全部楼层 |阅读模式
海报



译  名 必胜球探/篮儿当搏尽(港)/飞身救球/拼进NBA
片  名 Hustle
年  代 2022
国  家 美国
类  别 剧情/喜剧/运动
语  言 英语/西班牙语
字  幕 中简/中繁/英文
评  分 7.4/10 from 3,767 users
链  接 https://movie.douban.com/subject/35073914
文件大小 4.66 GB
片  长 117 Min
导  演 杰里米·撒加 Jeremiah Zagar
主  演 亚当·桑德勒 Adam Sandler
     胡安乔·埃尔南戈麦斯 Juancho Hernangomez
     罗伯特·杜瓦尔 Robert Duvall
     奎恩·拉提法 Queen Latifah
     本·福斯特 Ben Foster
     贾里尔·怀特 Jaleel White
     劳尔·卡斯提洛 Raul Castillo
     里昂·贝克维思 Lyon Beckwith
     博班·马里亚诺维奇 Boban Marjanovic
     玛丽亚·博托 Maria Botto
     海蒂·加德纳 Heidi Gardner

简介

  一名不走运的篮球星探(亚当·桑德勒 饰)在国外发现一个难得的好苗子,然而对方有一段曲折的过去。在未经球队同意的情况下,他自作主张将这名天才带回美国。在重重困难下,他们只有一次机会证明自己有打进NBA的实力。

Video
Format                         : AVC
Format/Info                    : Advanced Video Codec
Format profile                 : High@L4
Format settings                : CABAC / 4 Ref Frames
Format settings, CABAC         : Yes
Format settings, Reference fra : 4 frames
Codec ID                       : V_MPEG4/ISO/AVC
Duration                       : 1 h 58 min
Bit rate mode                  : Variable
Bit rate                       : 4 870 kb/s
Maximum bit rate               : 20.0 Mb/s
Width                          : 1 920 pixels
Height                         : 1 080 pixels
Display aspect ratio           : 16:9
Frame rate mode                : Constant
Frame rate                     : 24.000 FPS
Color space                    : YUV
Chroma subsampling             : 4:2:0
Bit depth                      : 8 bits
Scan type                      : Progressive
Bits/(Pixel*Frame)             : 0.098
Stream size                    : 4.02 GiB (86%)

Audio
Format                         : E-AC-3 JOC
Format/Info                    : Enhanced AC-3 with Joint Object Coding
Commercial name                : Dolby Digital Plus with Dolby Atmos
Codec ID                       : A_EAC3
Duration                       : 1 h 58 min
Bit rate mode                  : Constant
Bit rate                       : 768 kb/s
Channel(s)                     : 6 channels
Channel layout                 : L R C LFE Ls Rs
Sampling rate                  : 48.0 kHz
Frame rate                     : 31.250 FPS (1536 SPF)
Compression mode               : Lossy
Stream size                    : 649 MiB (14%)
Service kind                   : Complete Main
Complexity index               : 16
Number of dynamic objects      : 15
Bed channel count              : 1 channel
Bed channel configuration      : LFE

截图




BT种子下载
梦幻天堂·龙网(www.LWgod.org).必胜球探.篮儿当搏尽.torrent (24.61 KB, 下载次数: 2359)

2746

主题

3万

帖子

7万

积分

九鼎龙王·坛主

偶系漂漂滴龙民

Rank: 46Rank: 46Rank: 46Rank: 46Rank: 46Rank: 46

积分
75482

航子大神勋章

 楼主| 发表于 2022-6-17 16:58:07 | 显示全部楼层
  1. 【龙网转发】【美2022篮球迷必看热血好片】【必胜球探】【WebDL-1080p.MKV】【中字】
复制代码

  1. 海报

  2. [img]http://img.longwangbt.com/-10-/06.17/b/00.jpg[/img]

  3. 译  名 必胜球探/篮儿当搏尽(港)/飞身救球/拼进NBA
  4. 片  名 Hustle
  5. 年  代 2022
  6. 国  家 美国
  7. 类  别 剧情/喜剧/运动
  8. 语  言 英语/西班牙语
  9. 字  幕 中简/中繁/英文
  10. 评  分 7.4/10 from 3,767 users
  11. 链  接 [url=http://www.lwgod.org]https://movie.douban.com/subject/35073914[/url]
  12. 文件大小 4.66 GB
  13. 片  长 117 Min
  14. 导  演 杰里米·撒加 Jeremiah Zagar
  15. 主  演 亚当·桑德勒 Adam Sandler
  16.      胡安乔·埃尔南戈麦斯 Juancho Hernangomez
  17.      罗伯特·杜瓦尔 Robert Duvall
  18.      奎恩·拉提法 Queen Latifah
  19.      本·福斯特 Ben Foster
  20.      贾里尔·怀特 Jaleel White
  21.      劳尔·卡斯提洛 Raul Castillo
  22.      里昂·贝克维思 Lyon Beckwith
  23.      博班·马里亚诺维奇 Boban Marjanovic
  24.      玛丽亚·博托 Maria Botto
  25.      海蒂·加德纳 Heidi Gardner

  26. 简介

  27.   一名不走运的篮球星探(亚当·桑德勒 饰)在国外发现一个难得的好苗子,然而对方有一段曲折的过去。在未经球队同意的情况下,他自作主张将这名天才带回美国。在重重困难下,他们只有一次机会证明自己有打进NBA的实力。

  28. [quote][size=2]Video
  29. Format                         : AVC
  30. Format/Info                    : Advanced Video Codec
  31. Format profile                 : High@L4
  32. Format settings                : CABAC / 4 Ref Frames
  33. Format settings, CABAC         : Yes
  34. Format settings, Reference fra : 4 frames
  35. Codec ID                       : V_MPEG4/ISO/AVC
  36. Duration                       : 1 h 58 min
  37. Bit rate mode                  : Variable
  38. Bit rate                       : 4 870 kb/s
  39. Maximum bit rate               : 20.0 Mb/s
  40. Width                          : 1 920 pixels
  41. Height                         : 1 080 pixels
  42. Display aspect ratio           : 16:9
  43. Frame rate mode                : Constant
  44. Frame rate                     : 24.000 FPS
  45. Color space                    : YUV
  46. Chroma subsampling             : 4:2:0
  47. Bit depth                      : 8 bits
  48. Scan type                      : Progressive
  49. Bits/(Pixel*Frame)             : 0.098
  50. Stream size                    : 4.02 GiB (86%)

  51. Audio
  52. Format                         : E-AC-3 JOC
  53. Format/Info                    : Enhanced AC-3 with Joint Object Coding
  54. Commercial name                : Dolby Digital Plus with Dolby Atmos
  55. Codec ID                       : A_EAC3
  56. Duration                       : 1 h 58 min
  57. Bit rate mode                  : Constant
  58. Bit rate                       : 768 kb/s
  59. Channel(s)                     : 6 channels
  60. Channel layout                 : L R C LFE Ls Rs
  61. Sampling rate                  : 48.0 kHz
  62. Frame rate                     : 31.250 FPS (1536 SPF)
  63. Compression mode               : Lossy
  64. Stream size                    : 649 MiB (14%)
  65. Service kind                   : Complete Main
  66. Complexity index               : 16
  67. Number of dynamic objects      : 15
  68. Bed channel count              : 1 channel
  69. Bed channel configuration      : LFE[/size][/quote]
  70. 截图

  71. [img]http://img.longwangbt.com/-10-/06.17/b/01.jpg[/img]
复制代码

0

主题

878

帖子

2005

积分

赤血神龙

Rank: 20Rank: 20Rank: 20Rank: 20

积分
2005

龙网爱心勋章

发表于 2022-6-17 17:41:07 | 显示全部楼层
航子辛苦……

1

主题

6329

帖子

8688

积分

升龙霸·VIP

Rank: 22Rank: 22Rank: 22Rank: 22

积分
8688

龙网VIP·银星龙网VIP·银徽龙网VIP·银牌

发表于 2022-6-17 17:53:51 | 显示全部楼层
感谢楼主分享

1

主题

1756

帖子

4620

积分

赤血神龙

Rank: 20Rank: 20Rank: 20Rank: 20

积分
4620
发表于 2022-6-17 18:13:03 | 显示全部楼层
感謝航子分享精彩劇情電影!!

1

主题

597

帖子

1688

积分

神龙

Rank: 15Rank: 15Rank: 15

积分
1688
发表于 2022-6-17 19:22:43 | 显示全部楼层
亚当·桑德勒很喜欢他

1

主题

396

帖子

1015

积分

神龙

Rank: 15Rank: 15Rank: 15

积分
1015
发表于 2022-6-17 19:33:35 | 显示全部楼层
谢谢大大分享电影

0

主题

5877

帖子

6345

积分

海龙王

Rank: 25Rank: 25Rank: 25Rank: 25Rank: 25

积分
6345
发表于 2022-6-17 19:36:30 | 显示全部楼层
感谢楼主分享

0

主题

2451

帖子

2515

积分

霸王龙·贵宾

Rank: 18Rank: 18

积分
2515
QQ
发表于 2022-6-17 19:46:48 | 显示全部楼层
必看!篮球爱好者之一

一息尚存犹苦斗
不留点憾在人间

467

主题

1万

帖子

1万

积分

神界龙王

Rank: 30Rank: 30Rank: 30Rank: 30

积分
19747

龙网爱心勋章

发表于 2022-6-17 20:13:08 | 显示全部楼层
感谢楼主分享

1

主题

1383

帖子

2240

积分

赤血神龙

Rank: 20Rank: 20Rank: 20Rank: 20

积分
2240
发表于 2022-6-17 20:40:37 | 显示全部楼层
感謝航子分享!

0

主题

459

帖子

627

积分

龙的传人

Rank: 13Rank: 13Rank: 13

积分
627
发表于 2022-6-17 20:56:01 | 显示全部楼层
感谢航子分享!

0

主题

203

帖子

2547

积分

赤血神龙

Rank: 20Rank: 20Rank: 20Rank: 20

积分
2547
发表于 2022-6-17 23:16:25 | 显示全部楼层
楼主辛苦,多谢分享。

1

主题

1355

帖子

3678

积分

赤血神龙

Rank: 20Rank: 20Rank: 20Rank: 20

积分
3678
QQ
发表于 2022-6-17 23:27:48 | 显示全部楼层
tks for share,,,,,,,,,,,,,

0

主题

3961

帖子

5561

积分

海龙王

Rank: 25Rank: 25Rank: 25Rank: 25Rank: 25

积分
5561
发表于 2022-6-18 00:27:43 | 显示全部楼层
感谢航子的分享
您需要登录后才可以回帖 登录 | 立即注册

本版积分规则

小黑屋|梦幻天堂·龙网

GMT+8, 2022-7-5 14:02 , Processed in 0.248365 second(s), 27 queries , Gzip On.

Powered by Discuz! X3.2

© 2001-2013 Comsenz Inc.

快速回复 返回顶部 返回列表