梦幻天堂·龙网

 找回密码
 立即注册
查看: 16897|回复: 91

[最新电影龙网转发] 【龙网转发】【林家栋2021限制级高分悬疑犯罪】【智齿】【WebDL-1080p.MKV】【中字】

[复制链接]

2746

主题

3万

帖子

7万

积分

九鼎龙王·坛主

偶系漂漂滴龙民

Rank: 46Rank: 46Rank: 46Rank: 46Rank: 46Rank: 46

积分
75482

航子大神勋章

发表于 2022-6-15 19:26:05 | 显示全部楼层 |阅读模式
海报





译  名 智齿
片  名 Limbo
年  代 2021
国  家 中国香港/中国
类  别 悬疑/犯罪
语  言 粤语
字  幕 中文简繁
评  分 7.2/10 from 32,459 users
链  接 https://movie.douban.com/subject/27124695
文件大小 5.96 GB
片  长 118 Min
导  演 郑保瑞 Pou-Soi Cheang
主  演 林家栋 Ka Tung Lam
     刘雅瑟 Yase Liu
     李淳 Mason Lee
     池内博之 Hiroyuki Ikeuchi
     廖子妤 Fish Liew
     吴岱融 Hugo Ng
     沈震轩 Sammy Sum
     陈汉娜 Hanna Chan
     苏宸褕 Kumer So
     林晓彤 Iris Lam

简介

  从学堂毕业的任凯,因一宗连环凶杀案,与刚复职的展哥开始搭档。案子破不了反倒引发连串事故。展哥重遇杀妻儿的街童王桃,被激发的恨意一发不可收拾;任凯大意失枪,误被凶手所获。凶手潜伏在城市之中,危机逐步逼近……

  两位女性和一位身份不明的街头女孩相继被杀,在公众压力下,警署重启老侦探展哥(林家栋 饰)追凶,和他搭档的则是刚从警校毕业的的新人任凯(李淳 饰)。调查中,展哥再次碰到到让他失去孩子、妻子成为植物人的车祸肇事女孩王桃(刘雅瑟 饰),痛苦往事令他无法自控,夜幕下我们看到他一路飞车狂堵女孩,又在后者以赎罪心态前来道歉和配合调查时,毫不留情地重拳暴打,并在调查中刻意将王桃置身于歹徒威胁下。

  影片由两条叙事线交叉而开始并进,强烈的影像风格和美学设计,足以让我们看到这部作品的野心。黑白画面隐去许多不必要的信息,强化了阴魅科幻的氛围,比彩色画面更有优势。高低远近的建筑,城市空间感十足,众多象征元素和人物设计,不同的人也许会看到不同的指意和表达。整部影片的警察作为正义的维护者,在片中的形象却模糊不清。其中演绎这个有地狱般经历的瘦弱女孩,可以想象演员需要付出的巨大能量和坚持,近年来在影视作品中已经有不俗表现的刘雅瑟,片中令人惊喜。

Video
Format                         : AVC
Format/Info                    : Advanced Video Codec
Format profile                 : High@L4
Format settings                : CABAC / 4 Ref Frames
Format settings, CABAC         : Yes
Format settings, Reference fra : 4 frames
Codec ID                       : V_MPEG4/ISO/AVC
Duration                       : 1 h 58 min
Bit rate mode                  : Variable
Bit rate                       : 6 953 kb/s
Maximum bit rate               : 12.7 Mb/s
Width                          : 1 920 pixels
Height                         : 1 080 pixels
Display aspect ratio           : 16:9
Frame rate mode                : Constant
Frame rate                     : 24.000 FPS
Color space                    : YUV
Chroma subsampling             : 4:2:0
Bit depth                      : 8 bits
Scan type                      : Progressive
Bits/(Pixel*Frame)             : 0.140
Stream size                    : 5.74 GiB (96%)
Color range                    : Limited
Color primaries                : BT.709
Transfer characteristics       : BT.709
Matrix coefficients            : BT.709

Audio
Format                         : E-AC-3
Format/Info                    : Enhanced AC-3
Commercial name                : Dolby Digital Plus
Codec ID                       : A_EAC3
Duration                       : 1 h 58 min
Bit rate mode                  : Constant
Bit rate                       : 256 kb/s
Channel(s)                     : 6 channels
Channel layout                 : L R C LFE Ls Rs
Sampling rate                  : 48.0 kHz
Frame rate                     : 31.250 FPS (1536 SPF)
Compression mode               : Lossy
Stream size                    : 217 MiB (4%)
Service kind                   : Complete Main

截图




BT种子下载
梦幻天堂·龙网(www.LWgod.org).智齿.香港2021林家栋新片.torrent (31.13 KB, 下载次数: 5519)

2746

主题

3万

帖子

7万

积分

九鼎龙王·坛主

偶系漂漂滴龙民

Rank: 46Rank: 46Rank: 46Rank: 46Rank: 46Rank: 46

积分
75482

航子大神勋章

 楼主| 发表于 2022-6-15 19:50:23 | 显示全部楼层
  1. 【龙网转发】【林家栋2021限制级高分悬疑犯罪】【智齿】【WebDL-1080p.MKV】【中字】
复制代码

  1. 海报

  2. [img]http://img.longwangbt.com/-10-/06.15/z/00.jpg[/img]

  3. [img]http://img.longwangbt.com/-10-/06.15/z/01.jpg[/img]

  4. 译  名 智齿
  5. 片  名 Limbo
  6. 年  代 2021
  7. 国  家 中国香港/中国
  8. 类  别 悬疑/犯罪
  9. 语  言 粤语
  10. 字  幕 中文简繁
  11. 评  分 7.2/10 from 32,459 users
  12. 链  接 [url=http://www.lwgod.org]https://movie.douban.com/subject/27124695[/url]
  13. 文件大小 5.96 GB
  14. 片  长 118 Min
  15. 导  演 郑保瑞 Pou-Soi Cheang
  16. 主  演 林家栋 Ka Tung Lam
  17.      刘雅瑟 Yase Liu
  18.      李淳 Mason Lee
  19.      池内博之 Hiroyuki Ikeuchi
  20.      廖子妤 Fish Liew
  21.      吴岱融 Hugo Ng
  22.      沈震轩 Sammy Sum
  23.      陈汉娜 Hanna Chan
  24.      苏宸褕 Kumer So
  25.      林晓彤 Iris Lam

  26. 简介

  27.   从学堂毕业的任凯,因一宗连环凶杀案,与刚复职的展哥开始搭档。案子破不了反倒引发连串事故。展哥重遇杀妻儿的街童王桃,被激发的恨意一发不可收拾;任凯大意失枪,误被凶手所获。凶手潜伏在城市之中,危机逐步逼近……

  28.   两位女性和一位身份不明的街头女孩相继被杀,在公众压力下,警署重启老侦探展哥(林家栋 饰)追凶,和他搭档的则是刚从警校毕业的的新人任凯(李淳 饰)。调查中,展哥再次碰到到让他失去孩子、妻子成为植物人的车祸肇事女孩王桃(刘雅瑟 饰),痛苦往事令他无法自控,夜幕下我们看到他一路飞车狂堵女孩,又在后者以赎罪心态前来道歉和配合调查时,毫不留情地重拳暴打,并在调查中刻意将王桃置身于歹徒威胁下。

  29.   影片由两条叙事线交叉而开始并进,强烈的影像风格和美学设计,足以让我们看到这部作品的野心。黑白画面隐去许多不必要的信息,强化了阴魅科幻的氛围,比彩色画面更有优势。高低远近的建筑,城市空间感十足,众多象征元素和人物设计,不同的人也许会看到不同的指意和表达。整部影片的警察作为正义的维护者,在片中的形象却模糊不清。其中演绎这个有地狱般经历的瘦弱女孩,可以想象演员需要付出的巨大能量和坚持,近年来在影视作品中已经有不俗表现的刘雅瑟,片中令人惊喜。

  30. [quote][size=2]Video
  31. Format                         : AVC
  32. Format/Info                    : Advanced Video Codec
  33. Format profile                 : High@L4
  34. Format settings                : CABAC / 4 Ref Frames
  35. Format settings, CABAC         : Yes
  36. Format settings, Reference fra : 4 frames
  37. Codec ID                       : V_MPEG4/ISO/AVC
  38. Duration                       : 1 h 58 min
  39. Bit rate mode                  : Variable
  40. Bit rate                       : 6 953 kb/s
  41. Maximum bit rate               : 12.7 Mb/s
  42. Width                          : 1 920 pixels
  43. Height                         : 1 080 pixels
  44. Display aspect ratio           : 16:9
  45. Frame rate mode                : Constant
  46. Frame rate                     : 24.000 FPS
  47. Color space                    : YUV
  48. Chroma subsampling             : 4:2:0
  49. Bit depth                      : 8 bits
  50. Scan type                      : Progressive
  51. Bits/(Pixel*Frame)             : 0.140
  52. Stream size                    : 5.74 GiB (96%)
  53. Color range                    : Limited
  54. Color primaries                : BT.709
  55. Transfer characteristics       : BT.709
  56. Matrix coefficients            : BT.709

  57. Audio
  58. Format                         : E-AC-3
  59. Format/Info                    : Enhanced AC-3
  60. Commercial name                : Dolby Digital Plus
  61. Codec ID                       : A_EAC3
  62. Duration                       : 1 h 58 min
  63. Bit rate mode                  : Constant
  64. Bit rate                       : 256 kb/s
  65. Channel(s)                     : 6 channels
  66. Channel layout                 : L R C LFE Ls Rs
  67. Sampling rate                  : 48.0 kHz
  68. Frame rate                     : 31.250 FPS (1536 SPF)
  69. Compression mode               : Lossy
  70. Stream size                    : 217 MiB (4%)
  71. Service kind                   : Complete Main[/size][/quote]
  72. 截图

  73. [img]http://img.longwangbt.com/-10-/06.15/z/02.jpg[/img]
复制代码

1

主题

597

帖子

1688

积分

神龙

Rank: 15Rank: 15Rank: 15

积分
1688
发表于 2022-6-15 20:14:01 | 显示全部楼层
好久没坐沙发了

1

主题

8135

帖子

1万

积分

神界龙王

Rank: 30Rank: 30Rank: 30Rank: 30

积分
11825
发表于 2022-6-15 21:04:11 | 显示全部楼层
Thank you !!!!!

0

主题

393

帖子

720

积分

龙的传人

Rank: 13Rank: 13Rank: 13

积分
720
发表于 2022-6-15 21:30:20 | 显示全部楼层
感谢航子分享!

0

主题

8217

帖子

7948

积分

海龙王

Rank: 25Rank: 25Rank: 25Rank: 25Rank: 25

积分
7948
发表于 2022-6-15 21:33:28 | 显示全部楼层
林家栋越来越会演戏了,演技越来越了得了,值得欣赏的悬疑惊悚犯罪粤语港片。感谢航子分享!

0

主题

3961

帖子

5561

积分

海龙王

Rank: 25Rank: 25Rank: 25Rank: 25Rank: 25

积分
5561
发表于 2022-6-15 21:58:33 | 显示全部楼层
感谢航子的分享

2

主题

967

帖子

2042

积分

升龙霸·VIP

Rank: 22Rank: 22Rank: 22Rank: 22

积分
2042

龙网VIP·银星龙网VIP·银牌

发表于 2022-6-15 22:46:48 | 显示全部楼层
航子辛苦

1

主题

1355

帖子

3678

积分

赤血神龙

Rank: 20Rank: 20Rank: 20Rank: 20

积分
3678
QQ
发表于 2022-6-15 23:13:25 | 显示全部楼层
tks  for share..............

0

主题

203

帖子

2547

积分

赤血神龙

Rank: 20Rank: 20Rank: 20Rank: 20

积分
2547
发表于 2022-6-15 23:15:47 | 显示全部楼层
楼主辛苦,多谢分享。

1

主题

1383

帖子

2240

积分

赤血神龙

Rank: 20Rank: 20Rank: 20Rank: 20

积分
2240
发表于 2022-6-15 23:36:04 | 显示全部楼层
感謝航子分享

0

主题

66

帖子

92

积分

龙之子

Rank: 8Rank: 8Rank: 8Rank: 8

积分
92
发表于 2022-6-15 23:40:26 | 显示全部楼层
感谢航子分享!很好的电影

0

主题

7

帖子

19

积分

泡泡龙

Rank: 5Rank: 5Rank: 5

积分
19
发表于 2022-6-15 23:57:37 | 显示全部楼层
感谢航子分享!

0

主题

170

帖子

2083

积分

赤血神龙

Rank: 20Rank: 20Rank: 20Rank: 20

积分
2083
发表于 2022-6-16 00:24:22 | 显示全部楼层
感谢航子辛苦发佳片~!

4

主题

495

帖子

2403

积分

升龙霸·VIP

Rank: 22Rank: 22Rank: 22Rank: 22

积分
2403

龙网VIP·银章

发表于 2022-6-16 07:52:04 | 显示全部楼层
谢谢航子分享
您需要登录后才可以回帖 登录 | 立即注册

本版积分规则

小黑屋|梦幻天堂·龙网

GMT+8, 2022-7-5 14:06 , Processed in 0.258450 second(s), 27 queries , Gzip On.

Powered by Discuz! X3.2

© 2001-2013 Comsenz Inc.

快速回复 返回顶部 返回列表