梦幻天堂·龙网

 找回密码
 立即注册
查看: 13556|回复: 93

[最新电影龙网转发] 【龙网转发】【中国2022好评热门悬疑惊悚】【山村狐妻】【WebDL-2160p.MKV】【国语】

[复制链接]

2746

主题

3万

帖子

7万

积分

九鼎龙王·坛主

偶系漂漂滴龙民

Rank: 46Rank: 46Rank: 46Rank: 46Rank: 46Rank: 46

积分
75482

航子大神勋章

发表于 2022-6-13 20:35:20 | 显示全部楼层 |阅读模式
海报





译  名 山村狐妻
片  名 The Wicked Wife
年  代 2022
国  家 中国
类  别 悬疑/惊悚
语  言 汉语普通话
字  幕 中英硬字幕
评  分 6.5/10 from 5,904 users
链  接 https://movie.douban.com/subject/35914264
文件大小 1.82 GB
片  长 93 Min
导  演 刘轩狄 Xuandi Liu
主  演 盛冠森 Guansen Sheng
     王铭 Wang Ming
     林枫烨 Fengye Lin
     付赫安琪 Anqi Fu-He
     恩璟 En Jing
     傅隽 Jun Fu
     包小平 Xiaoping Bao
     韩锐 Rui Han
     王佳希 Jiaxi Wang
     郭东海 Donghai Guo
     魏劲松 Jinsong Wei

简介

  民国年间,一场大雨困住了准备渡河前往喇叭沟唱红事的戏班子。雷雨交加的夜晚,与戏班子一同避雨的竟还有杀人如麻的山匪、身份不明的巡捕,一群各怀鬼胎的人,竟都与十五年前的狐妻事件密切相关。有关狐妻的传闻,有的说是村民偷了狐仙殿的灯油被狐仙发现,被迫娶了狐仙为妻。有的说是狐妖在茶杯村作祟,抓了村民打絮巴造畜……其中真相都与一个叫李寿庭的杀人犯有关。而今这个叫李寿庭的人正在这龙王庙中避雨。狡黠难缠的杀人犯和心思不明的戏班子,沾满鲜血的过去在怪力乱神的说辞中逐渐清晰……

  终于有一部像样的国产惊悚片了。电影依托于东北民间志怪传说展开,为影片赋予了惊悚、悬疑的吸睛外表,而深挖的人性、直击人心的故事内核,到最后一刻,才水落石出。除却恐怖元素,它真正做到了很多院线片都做不好的事:讲好一个故事。所谓“狐妖”,即便世界上真的存在,也并不可怕。可怕的,是惊悚背后,最残忍的人性,狐妖之恶,比起人之恶,实在是要单纯得多。狐妖的洞穴再深,又怎会有人心这么深呢?

Video
Format                         : HEVC
Format/Info                    : High Efficiency Video Coding
Format profile                 : Main@L5@Main
Codec ID                       : V_MPEGH/ISO/HEVC
Duration                       : 1 h 32 min
Bit rate                       : 2 622 kb/s
Width                          : 3 840 pixels
Height                         : 1 440 pixels
Display aspect ratio           : 2.667
Frame rate mode                : Constant
Frame rate                     : 25.000 FPS
Color space                    : YUV
Chroma subsampling             : 4:2:0
Bit depth                      : 8 bits
Bits/(Pixel*Frame)             : 0.019
Stream size                    : 1.70 GiB (93%)
Color range                    : Limited
Color primaries                : BT.709
Transfer characteristics       : BT.709
Matrix coefficients            : BT.709

Audio
Format                         : AAC LC
Format/Info                    : Advanced Audio Codec Low Complexity
Codec ID                       : A_AAC-2
Duration                       : 1 h 32 min
Bit rate                       : 192 kb/s
Channel(s)                     : 2 channels
Channel layout                 : L R
Sampling rate                  : 44.1 kHz
Frame rate                     : 43.066 FPS (1024 SPF)
Compression mode               : Lossy
Stream size                    : 126 MiB (7%)

截图




BT种子下载
梦幻天堂·龙网(www.LWgod.org).山村狐妻.torrent (37.71 KB, 下载次数: 3637)

2746

主题

3万

帖子

7万

积分

九鼎龙王·坛主

偶系漂漂滴龙民

Rank: 46Rank: 46Rank: 46Rank: 46Rank: 46Rank: 46

积分
75482

航子大神勋章

 楼主| 发表于 2022-6-13 20:59:50 | 显示全部楼层
  1. 【龙网转发】【中国2022好评热门悬疑惊悚】【山村狐妻】【WebDL-2160p.MKV】【国语】
复制代码

  1. 海报

  2. [img]http://img.longwangbt.com/-10-/06.13/s/00.jpg[/img]

  3. [img]http://img.longwangbt.com/-10-/06.13/s/01.jpg[/img]

  4. 译  名 山村狐妻
  5. 片  名 The Wicked Wife
  6. 年  代 2022
  7. 国  家 中国
  8. 类  别 悬疑/惊悚
  9. 语  言 汉语普通话
  10. 字  幕 中英硬字幕
  11. 评  分 6.5/10 from 5,904 users
  12. 链  接 [url=http://www.lwgod.org]https://movie.douban.com/subject/35914264[/url]
  13. 文件大小 1.82 GB
  14. 片  长 93 Min
  15. 导  演 刘轩狄 Xuandi Liu
  16. 主  演 盛冠森 Guansen Sheng
  17.      王铭 Wang Ming
  18.      林枫烨 Fengye Lin
  19.      付赫安琪 Anqi Fu-He
  20.      恩璟 En Jing
  21.      傅隽 Jun Fu
  22.      包小平 Xiaoping Bao
  23.      韩锐 Rui Han
  24.      王佳希 Jiaxi Wang
  25.      郭东海 Donghai Guo
  26.      魏劲松 Jinsong Wei

  27. 简介

  28.   民国年间,一场大雨困住了准备渡河前往喇叭沟唱红事的戏班子。雷雨交加的夜晚,与戏班子一同避雨的竟还有杀人如麻的山匪、身份不明的巡捕,一群各怀鬼胎的人,竟都与十五年前的狐妻事件密切相关。有关狐妻的传闻,有的说是村民偷了狐仙殿的灯油被狐仙发现,被迫娶了狐仙为妻。有的说是狐妖在茶杯村作祟,抓了村民打絮巴造畜……其中真相都与一个叫李寿庭的杀人犯有关。而今这个叫李寿庭的人正在这龙王庙中避雨。狡黠难缠的杀人犯和心思不明的戏班子,沾满鲜血的过去在怪力乱神的说辞中逐渐清晰……

  29.   终于有一部像样的国产惊悚片了。电影依托于东北民间志怪传说展开,为影片赋予了惊悚、悬疑的吸睛外表,而深挖的人性、直击人心的故事内核,到最后一刻,才水落石出。除却恐怖元素,它真正做到了很多院线片都做不好的事:讲好一个故事。所谓“狐妖”,即便世界上真的存在,也并不可怕。可怕的,是惊悚背后,最残忍的人性,狐妖之恶,比起人之恶,实在是要单纯得多。狐妖的洞穴再深,又怎会有人心这么深呢?

  30. [quote][size=2]Video
  31. Format                         : HEVC
  32. Format/Info                    : High Efficiency Video Coding
  33. Format profile                 : Main@L5@Main
  34. Codec ID                       : V_MPEGH/ISO/HEVC
  35. Duration                       : 1 h 32 min
  36. Bit rate                       : 2 622 kb/s
  37. Width                          : 3 840 pixels
  38. Height                         : 1 440 pixels
  39. Display aspect ratio           : 2.667
  40. Frame rate mode                : Constant
  41. Frame rate                     : 25.000 FPS
  42. Color space                    : YUV
  43. Chroma subsampling             : 4:2:0
  44. Bit depth                      : 8 bits
  45. Bits/(Pixel*Frame)             : 0.019
  46. Stream size                    : 1.70 GiB (93%)
  47. Color range                    : Limited
  48. Color primaries                : BT.709
  49. Transfer characteristics       : BT.709
  50. Matrix coefficients            : BT.709

  51. Audio
  52. Format                         : AAC LC
  53. Format/Info                    : Advanced Audio Codec Low Complexity
  54. Codec ID                       : A_AAC-2
  55. Duration                       : 1 h 32 min
  56. Bit rate                       : 192 kb/s
  57. Channel(s)                     : 2 channels
  58. Channel layout                 : L R
  59. Sampling rate                  : 44.1 kHz
  60. Frame rate                     : 43.066 FPS (1024 SPF)
  61. Compression mode               : Lossy
  62. Stream size                    : 126 MiB (7%)[/size][/quote]
  63. 截图

  64. [img]http://img.longwangbt.com/-10-/06.13/s/02.jpg[/img]
复制代码

0

主题

467

帖子

992

积分

龙的传人

Rank: 13Rank: 13Rank: 13

积分
992
发表于 2022-6-13 21:19:17 | 显示全部楼层
谢谢分享谢谢分享

1

主题

597

帖子

1688

积分

神龙

Rank: 15Rank: 15Rank: 15

积分
1688
发表于 2022-6-13 21:24:26 | 显示全部楼层
不敢看怕怕

0

主题

3961

帖子

5561

积分

海龙王

Rank: 25Rank: 25Rank: 25Rank: 25Rank: 25

积分
5561
发表于 2022-6-13 21:59:41 | 显示全部楼层
感谢楼主的分享

0

主题

459

帖子

627

积分

龙的传人

Rank: 13Rank: 13Rank: 13

积分
627
发表于 2022-6-13 22:04:34 | 显示全部楼层
感谢航子分享!

4

主题

511

帖子

2254

积分

赤血神龙

Rank: 20Rank: 20Rank: 20Rank: 20

积分
2254

龙网爱心勋章

QQ
发表于 2022-6-13 22:11:07 | 显示全部楼层
太好了谢谢
生活不容易

0

主题

203

帖子

2547

积分

赤血神龙

Rank: 20Rank: 20Rank: 20Rank: 20

积分
2547
发表于 2022-6-13 22:30:53 | 显示全部楼层
楼主辛苦,多谢分享。

0

主题

8217

帖子

7948

积分

海龙王

Rank: 25Rank: 25Rank: 25Rank: 25Rank: 25

积分
7948
发表于 2022-6-13 22:47:38 | 显示全部楼层
国产悬疑惊悚影片,一看片名就有点寒意,一看海报就感觉背后凉凉的。感谢航子分享!

0

主题

7114

帖子

7335

积分

霸王龙·贵宾

狱血黑龙

Rank: 18Rank: 18

积分
7335
发表于 2022-6-13 23:20:57 | 显示全部楼层
感谢航子的分享,支持支持
当你不再拥有的时候,你唯一可以做的,就是令自己不要忘记!

0

主题

142

帖子

274

积分

龙少爷

Rank: 10Rank: 10

积分
274
发表于 2022-6-13 23:25:06 | 显示全部楼层
一个人还真不敢看啊

1

主题

1355

帖子

3678

积分

赤血神龙

Rank: 20Rank: 20Rank: 20Rank: 20

积分
3678
QQ
发表于 2022-6-13 23:32:45 | 显示全部楼层
tks for share..............

0

主题

393

帖子

828

积分

龙的传人

Rank: 13Rank: 13Rank: 13

积分
828
发表于 2022-6-13 23:37:02 | 显示全部楼层

谢谢好片分享。

0

主题

170

帖子

302

积分

龙少爷

Rank: 10Rank: 10

积分
302
发表于 2022-6-14 00:22:04 | 显示全部楼层
以前敢看,现在怂了

0

主题

2183

帖子

4055

积分

赤血神龙

Rank: 20Rank: 20Rank: 20Rank: 20

积分
4055
QQ
发表于 2022-6-14 05:29:08 | 显示全部楼层
感谢航子分享
一切终会过去
您需要登录后才可以回帖 登录 | 立即注册

本版积分规则

小黑屋|梦幻天堂·龙网

GMT+8, 2022-7-5 14:33 , Processed in 0.257954 second(s), 27 queries , Gzip On.

Powered by Discuz! X3.2

© 2001-2013 Comsenz Inc.

快速回复 返回顶部 返回列表