梦幻天堂·龙网

 找回密码
 立即注册
查看: 16906|回复: 120

[最新电影龙网转发] 【龙网转发】【中国2022好评热门武侠动作】【目中无人】【WebDL-1080p.MKV】【国语】

  [复制链接]

2746

主题

3万

帖子

7万

积分

九鼎龙王·坛主

偶系漂漂滴龙民

Rank: 46Rank: 46Rank: 46Rank: 46Rank: 46Rank: 46

积分
75482

航子大神勋章

发表于 2022-6-11 20:02:38 | 显示全部楼层 |阅读模式
海报



片  名 目中无人/盲侠
年  代 2022
国  家 中国
类  别 动作/武侠
语  言 汉语普通话
字  幕 中文硬字幕
评  分 7.0/10 from 8,967 users
链  接 https://movie.douban.com/subject/35295405
文件大小 1.30 GB
片  长 74 Min
导  演 杨秉佳 Bingjia Yang
主  演 谢苗 Miu Tse
     高维蔓 Weiman Gao
     向皓 Hao Xiang
     刘奔 Ben Liu
     张荻 Di Zhang
     张皓森 Haosen Zhang
     高毅 Yi Gao
     康轩 Xuan Kang
     侯骏桀 Junjie Hou
     尹箭 Jian Yin
     甘书杰 Shujie Gan

简介

  电影讲述身怀绝技的盲眼“捉刀人”成瞎子,遇上惨遭灭门和凌辱的酒家女倪燕,原本不想插手的他逐渐被卷入一场势力庞大的暗黑纷争中,成瞎子开始踏上了寻求公道的复仇之路,他的真实身份也随之揭晓。

Video
Format                         : HEVC
Format/Info                    : High Efficiency Video Coding
Format profile                 : Main@L4@Main
Codec ID                       : V_MPEGH/ISO/HEVC
Duration                       : 1 h 13 min
Bit rate                       : 2 148 kb/s
Width                          : 1 920 pixels
Height                         : 800 pixels
Display aspect ratio           : 2.40:1
Frame rate mode                : Constant
Frame rate                     : 24.000 FPS
Color space                    : YUV
Chroma subsampling             : 4:2:0
Bit depth                      : 8 bits
Bits/(Pixel*Frame)             : 0.058
Stream size                    : 1.11 GiB (85%)

Audio
Format                         : E-AC-3
Format/Info                    : Enhanced AC-3
Commercial name                : Dolby Digital Plus
Codec ID                       : A_EAC3
Duration                       : 1 h 13 min
Bit rate mode                  : Constant
Bit rate                       : 384 kb/s
Channel(s)                     : 6 channels
Channel layout                 : L R C LFE Ls Rs
Sampling rate                  : 48.0 kHz
Frame rate                     : 31.250 FPS (1536 SPF)
Compression mode               : Lossy
Stream size                    : 203 MiB (15%)
Service kind                   : Complete Main

截图




BT种子下载
梦幻天堂·龙网(www.LWgod.org).目中无人.盲侠.torrent (27.42 KB, 下载次数: 8313)

2746

主题

3万

帖子

7万

积分

九鼎龙王·坛主

偶系漂漂滴龙民

Rank: 46Rank: 46Rank: 46Rank: 46Rank: 46Rank: 46

积分
75482

航子大神勋章

 楼主| 发表于 2022-6-11 20:19:44 | 显示全部楼层
  1. 【龙网转发】【中国2022好评热门武侠动作】【目中无人】【WebDL-1080p.MKV】【国语】
复制代码

  1. 海报

  2. [img]http://img.longwangbt.com/-10-/06.11/m/00.jpg[/img]

  3. 片  名 目中无人/盲侠
  4. 年  代 2022
  5. 国  家 中国
  6. 类  别 动作/武侠
  7. 语  言 汉语普通话
  8. 字  幕 中文硬字幕
  9. 评  分 7.0/10 from 8,967 users
  10. 链  接 [url=http://www.lwgod.org]https://movie.douban.com/subject/35295405[/url]
  11. 文件大小 1.30 GB
  12. 片  长 74 Min
  13. 导  演 杨秉佳 Bingjia Yang
  14. 主  演 谢苗 Miu Tse
  15.      高维蔓 Weiman Gao
  16.      向皓 Hao Xiang
  17.      刘奔 Ben Liu
  18.      张荻 Di Zhang
  19.      张皓森 Haosen Zhang
  20.      高毅 Yi Gao
  21.      康轩 Xuan Kang
  22.      侯骏桀 Junjie Hou
  23.      尹箭 Jian Yin
  24.      甘书杰 Shujie Gan

  25. 简介

  26.   电影讲述身怀绝技的盲眼“捉刀人”成瞎子,遇上惨遭灭门和凌辱的酒家女倪燕,原本不想插手的他逐渐被卷入一场势力庞大的暗黑纷争中,成瞎子开始踏上了寻求公道的复仇之路,他的真实身份也随之揭晓。

  27. [quote][size=2]Video
  28. Format                         : HEVC
  29. Format/Info                    : High Efficiency Video Coding
  30. Format profile                 : Main@L4@Main
  31. Codec ID                       : V_MPEGH/ISO/HEVC
  32. Duration                       : 1 h 13 min
  33. Bit rate                       : 2 148 kb/s
  34. Width                          : 1 920 pixels
  35. Height                         : 800 pixels
  36. Display aspect ratio           : 2.40:1
  37. Frame rate mode                : Constant
  38. Frame rate                     : 24.000 FPS
  39. Color space                    : YUV
  40. Chroma subsampling             : 4:2:0
  41. Bit depth                      : 8 bits
  42. Bits/(Pixel*Frame)             : 0.058
  43. Stream size                    : 1.11 GiB (85%)

  44. Audio
  45. Format                         : E-AC-3
  46. Format/Info                    : Enhanced AC-3
  47. Commercial name                : Dolby Digital Plus
  48. Codec ID                       : A_EAC3
  49. Duration                       : 1 h 13 min
  50. Bit rate mode                  : Constant
  51. Bit rate                       : 384 kb/s
  52. Channel(s)                     : 6 channels
  53. Channel layout                 : L R C LFE Ls Rs
  54. Sampling rate                  : 48.0 kHz
  55. Frame rate                     : 31.250 FPS (1536 SPF)
  56. Compression mode               : Lossy
  57. Stream size                    : 203 MiB (15%)
  58. Service kind                   : Complete Main[/size][/quote]
  59. 截图

  60. [img]http://img.longwangbt.com/-10-/06.11/m/01.jpg[/img]
复制代码

3

主题

575

帖子

1383

积分

升龙霸·VIP

Rank: 22Rank: 22Rank: 22Rank: 22

积分
1383

龙网VIP·金章

发表于 2022-6-11 20:28:55 | 显示全部楼层
谢谢楼主分享!!

0

主题

19

帖子

42

积分

泡泡龙

Rank: 5Rank: 5Rank: 5

积分
42
发表于 2022-6-11 20:38:02 | 显示全部楼层
中国2022好评热门武侠动作】【目中无人

0

主题

467

帖子

992

积分

龙的传人

Rank: 13Rank: 13Rank: 13

积分
992
发表于 2022-6-11 20:53:12 | 显示全部楼层
谢谢分享!!!!谢谢分享!!!!

0

主题

459

帖子

627

积分

龙的传人

Rank: 13Rank: 13Rank: 13

积分
627
发表于 2022-6-11 21:15:18 | 显示全部楼层
感谢航子分享!

0

主题

5877

帖子

6345

积分

海龙王

Rank: 25Rank: 25Rank: 25Rank: 25Rank: 25

积分
6345
发表于 2022-6-11 21:47:01 | 显示全部楼层
感谢楼主分享

0

主题

3961

帖子

5561

积分

海龙王

Rank: 25Rank: 25Rank: 25Rank: 25Rank: 25

积分
5561
发表于 2022-6-11 21:49:17 | 显示全部楼层
感谢航子的分享

1

主题

396

帖子

1015

积分

神龙

Rank: 15Rank: 15Rank: 15

积分
1015
发表于 2022-6-11 21:51:22 | 显示全部楼层
谢谢分享影片

1

主题

56

帖子

120

积分

龙之子

Rank: 8Rank: 8Rank: 8Rank: 8

积分
120
发表于 2022-6-11 22:32:59 | 显示全部楼层
谢谢楼主分享

1

主题

1万

帖子

2万

积分

神界龙王

Rank: 30Rank: 30Rank: 30Rank: 30

积分
20937

龙网爱心勋章

发表于 2022-6-11 23:15:04 | 显示全部楼层

谢谢楼主分享
笑看红尘

0

主题

203

帖子

2547

积分

赤血神龙

Rank: 20Rank: 20Rank: 20Rank: 20

积分
2547
发表于 2022-6-11 23:26:10 | 显示全部楼层
楼主辛苦,多谢分享。

1

主题

1355

帖子

3678

积分

赤血神龙

Rank: 20Rank: 20Rank: 20Rank: 20

积分
3678
QQ
发表于 2022-6-11 23:43:24 | 显示全部楼层
tks for  share.,,,,,,,,,

0

主题

355

帖子

688

积分

龙的传人

Rank: 13Rank: 13Rank: 13

积分
688
发表于 2022-6-12 01:36:02 | 显示全部楼层
本帖最后由 haitian0213 于 2022-6-12 01:38 编辑

奇怪,为什么我下载后,用好几个播放器都打开只能播放音频,最后用系统自带播放器终于打开了,但是画面隔几秒就显示马赛克。看不成啊。坛主看看是不是种子有问题啊。
支持高清电影

0

主题

2183

帖子

4055

积分

赤血神龙

Rank: 20Rank: 20Rank: 20Rank: 20

积分
4055
QQ
发表于 2022-6-12 05:05:17 | 显示全部楼层
感谢航子分享
一切终会过去
您需要登录后才可以回帖 登录 | 立即注册

本版积分规则

小黑屋|梦幻天堂·龙网

GMT+8, 2022-7-5 15:27 , Processed in 0.208596 second(s), 27 queries , Gzip On.

Powered by Discuz! X3.2

© 2001-2013 Comsenz Inc.

快速回复 返回顶部 返回列表