梦幻天堂·龙网

 找回密码
 立即注册
查看: 11504|回复: 95

[最新电影龙网转发] 【龙网转发】【凯奇2022喜剧动作】【天才不能承受之重】【WebDL-1080p.MKV】【中字】

[复制链接]

2746

主题

3万

帖子

7万

积分

九鼎龙王·坛主

偶系漂漂滴龙民

Rank: 46Rank: 46Rank: 46Rank: 46Rank: 46Rank: 46

积分
75482

航子大神勋章

发表于 2022-6-9 17:33:55 | 显示全部楼层 |阅读模式
海报





译  名 天才不能承受之重/超重天才/超吉任务(台)/丧尽癫才(港)/天才无法承受之重/不能承受的天才之重
片  名 The Unbearable Weight of Massive Talent
年  代 2022
国  家 美国
类  别 喜剧/动作/犯罪
语  言 英语
字  幕 中简/中繁/英文
评  分 7.3/10 from 26,747 users
链  接 https://www.imdb.com/title/tt11291274
文件大小 6.69 GB
片  长 107 Min
导  演 汤姆·戈米肯 Tom Gormican
主  演 尼古拉斯·凯奇 Nicolas Cage
     佩德罗·帕斯卡 Pedro Pascal
     蒂凡尼·哈迪斯 Tiffany Haddish
     莎朗·豪根 Sharon Horgan
     帕科·莱昂 Paco Leon
     尼尔·帕特里克·哈里斯 Neil Patrick Harris
     莉莉·莫·辛 Lily Mo Sheen
     亚历桑德拉·马斯特罗纳迪 Alessandra Mastronardi
     雅各布·西皮奥 Jacob Scipio
     卡特琳·万科娃 Katrin Vankova
     黛米·摩尔 Demi Moore

简介

  尼古拉斯·凯奇有新片了,这次他要在电影里演自己。该片主角就是尼古拉斯·凯奇本人,他疯狂的渴望在昆汀·塔伦蒂诺的下部电影里得到一个角色,他经常会和自己脑海中一个90年代的自己对话,后者不断吐槽他“老是接烂片”、“再也不是当年那个电影明星”了。

  演员尼古拉斯·凯奇因为负债累累接受了一位墨西哥亿万富翁的邀约,为了100万美元参加其生日派对。在那里,凯奇得知富翁经营着一家毒品垄断公司,中央情报局则招募凯奇进行情报工作。这时更戏剧化的事出现:这位毒枭带来了凯奇的女儿和前妻,希望三人搞好关系。三人的生命安全都有了危险,此时凯奇必须承担起自己的责任。

  《天才不能承受之重》就像尼古拉斯·凯奇本人那样不可预测,喜欢凯奇这一点的人会很爱这部片。导演设计了原创且卓越的概念,成品则显得过于技术流,只有真正的凯奇粉丝才能理解所有的笑话。该片是一部开尼古拉斯·凯奇辉煌年代玩笑的商业喜剧,庆祝他作为凯奇的一切。最后也真的变成了一部尼古拉斯凯奇电影,事实证明,这既是有点俗气的事,也是一部特别的事。如果有观众是凯奇的粉丝,那么就会对这部电影对凯奇元素每一次引用感到兴奋;如果不是凯奇粉丝,这也是一部感人、引人入胜、有趣的电影。

Video
Format                         : AVC
Format/Info                    : Advanced Video Codec
Format profile                 : High@L4
Format settings                : CABAC / 4 Ref Frames
Format settings, CABAC         : Yes
Format settings, Reference fra : 4 frames
Codec ID                       : V_MPEG4/ISO/AVC
Duration                       : 1 h 46 min
Bit rate mode                  : Constant
Bit rate                       : 8 182 kb/s
Nominal bit rate               : 10 000 kb/s
Width                          : 1 920 pixels
Height                         : 800 pixels
Display aspect ratio           : 2.40:1
Frame rate mode                : Constant
Frame rate                     : 23.976 (24000/1001) FPS
Color space                    : YUV
Chroma subsampling             : 4:2:0
Bit depth                      : 8 bits
Scan type                      : Progressive
Bits/(Pixel*Frame)             : 0.222
Stream size                    : 6.11 GiB (91%)
Color range                    : Limited
Color primaries                : BT.709
Transfer characteristics       : BT.709
Matrix coefficients            : BT.709

Audio
Format                         : E-AC-3 JOC
Format/Info                    : Enhanced AC-3 with Joint Object Coding
Commercial name                : Dolby Digital Plus with Dolby Atmos
Codec ID                       : A_EAC3
Duration                       : 1 h 46 min
Bit rate mode                  : Constant
Bit rate                       : 768 kb/s
Channel(s)                     : 6 channels
Channel layout                 : L R C LFE Ls Rs
Sampling rate                  : 48.0 kHz
Frame rate                     : 31.250 FPS (1536 SPF)
Compression mode               : Lossy
Stream size                    : 587 MiB (9%)
Service kind                   : Complete Main
Complexity index               : 16
Number of dynamic objects      : 15
Bed channel count              : 1 channel
Bed channel configuration      : LFE

截图




BT种子下载
梦幻天堂·龙网(www.LWgod.org).天才不能承受之重.超吉任务.torrent (34.75 KB, 下载次数: 5064)

评分

1

查看全部评分

2746

主题

3万

帖子

7万

积分

九鼎龙王·坛主

偶系漂漂滴龙民

Rank: 46Rank: 46Rank: 46Rank: 46Rank: 46Rank: 46

积分
75482

航子大神勋章

 楼主| 发表于 2022-6-9 17:55:04 | 显示全部楼层
  1. 【龙网转发】【凯奇2022喜剧动作】【天才不能承受之重】【WebDL-1080p.MKV】【中字】
复制代码

  1. 海报

  2. [img]http://img.longwangbt.com/-10-/06.09/t/00.jpg[/img]

  3. [img]http://img.longwangbt.com/-10-/06.09/t/01.jpg[/img]

  4. 译  名 天才不能承受之重/超重天才/超吉任务(台)/丧尽癫才(港)/天才无法承受之重/不能承受的天才之重
  5. 片  名 The Unbearable Weight of Massive Talent
  6. 年  代 2022
  7. 国  家 美国
  8. 类  别 喜剧/动作/犯罪
  9. 语  言 英语
  10. 字  幕 中简/中繁/英文
  11. 评  分 7.3/10 from 26,747 users
  12. 链  接 [url=http://www.lwgod.org]https://www.imdb.com/title/tt11291274[/url]
  13. 文件大小 6.69 GB
  14. 片  长 107 Min
  15. 导  演 汤姆·戈米肯 Tom Gormican
  16. 主  演 尼古拉斯·凯奇 Nicolas Cage
  17.      佩德罗·帕斯卡 Pedro Pascal
  18.      蒂凡尼·哈迪斯 Tiffany Haddish
  19.      莎朗·豪根 Sharon Horgan
  20.      帕科·莱昂 Paco Leon
  21.      尼尔·帕特里克·哈里斯 Neil Patrick Harris
  22.      莉莉·莫·辛 Lily Mo Sheen
  23.      亚历桑德拉·马斯特罗纳迪 Alessandra Mastronardi
  24.      雅各布·西皮奥 Jacob Scipio
  25.      卡特琳·万科娃 Katrin Vankova
  26.      黛米·摩尔 Demi Moore

  27. 简介

  28.   尼古拉斯·凯奇有新片了,这次他要在电影里演自己。该片主角就是尼古拉斯·凯奇本人,他疯狂的渴望在昆汀·塔伦蒂诺的下部电影里得到一个角色,他经常会和自己脑海中一个90年代的自己对话,后者不断吐槽他“老是接烂片”、“再也不是当年那个电影明星”了。

  29.   演员尼古拉斯·凯奇因为负债累累接受了一位墨西哥亿万富翁的邀约,为了100万美元参加其生日派对。在那里,凯奇得知富翁经营着一家毒品垄断公司,中央情报局则招募凯奇进行情报工作。这时更戏剧化的事出现:这位毒枭带来了凯奇的女儿和前妻,希望三人搞好关系。三人的生命安全都有了危险,此时凯奇必须承担起自己的责任。

  30.   《天才不能承受之重》就像尼古拉斯·凯奇本人那样不可预测,喜欢凯奇这一点的人会很爱这部片。导演设计了原创且卓越的概念,成品则显得过于技术流,只有真正的凯奇粉丝才能理解所有的笑话。该片是一部开尼古拉斯·凯奇辉煌年代玩笑的商业喜剧,庆祝他作为凯奇的一切。最后也真的变成了一部尼古拉斯凯奇电影,事实证明,这既是有点俗气的事,也是一部特别的事。如果有观众是凯奇的粉丝,那么就会对这部电影对凯奇元素每一次引用感到兴奋;如果不是凯奇粉丝,这也是一部感人、引人入胜、有趣的电影。

  31. [quote][size=2]Video
  32. Format                         : AVC
  33. Format/Info                    : Advanced Video Codec
  34. Format profile                 : High@L4
  35. Format settings                : CABAC / 4 Ref Frames
  36. Format settings, CABAC         : Yes
  37. Format settings, Reference fra : 4 frames
  38. Codec ID                       : V_MPEG4/ISO/AVC
  39. Duration                       : 1 h 46 min
  40. Bit rate mode                  : Constant
  41. Bit rate                       : 8 182 kb/s
  42. Nominal bit rate               : 10 000 kb/s
  43. Width                          : 1 920 pixels
  44. Height                         : 800 pixels
  45. Display aspect ratio           : 2.40:1
  46. Frame rate mode                : Constant
  47. Frame rate                     : 23.976 (24000/1001) FPS
  48. Color space                    : YUV
  49. Chroma subsampling             : 4:2:0
  50. Bit depth                      : 8 bits
  51. Scan type                      : Progressive
  52. Bits/(Pixel*Frame)             : 0.222
  53. Stream size                    : 6.11 GiB (91%)
  54. Color range                    : Limited
  55. Color primaries                : BT.709
  56. Transfer characteristics       : BT.709
  57. Matrix coefficients            : BT.709

  58. Audio
  59. Format                         : E-AC-3 JOC
  60. Format/Info                    : Enhanced AC-3 with Joint Object Coding
  61. Commercial name                : Dolby Digital Plus with Dolby Atmos
  62. Codec ID                       : A_EAC3
  63. Duration                       : 1 h 46 min
  64. Bit rate mode                  : Constant
  65. Bit rate                       : 768 kb/s
  66. Channel(s)                     : 6 channels
  67. Channel layout                 : L R C LFE Ls Rs
  68. Sampling rate                  : 48.0 kHz
  69. Frame rate                     : 31.250 FPS (1536 SPF)
  70. Compression mode               : Lossy
  71. Stream size                    : 587 MiB (9%)
  72. Service kind                   : Complete Main
  73. Complexity index               : 16
  74. Number of dynamic objects      : 15
  75. Bed channel count              : 1 channel
  76. Bed channel configuration      : LFE[/size][/quote]
  77. 截图

  78. [img]http://img.longwangbt.com/-10-/06.09/t/02.jpg[/img]
复制代码

2

主题

29

帖子

341

积分

升龙霸·VIP

Rank: 22Rank: 22Rank: 22Rank: 22

积分
341

龙网VIP·金牌

发表于 2022-6-9 19:46:14 | 显示全部楼层
好久没看凯奇的片子了

1

主题

597

帖子

1688

积分

神龙

Rank: 15Rank: 15Rank: 15

积分
1688
发表于 2022-6-9 19:51:24 | 显示全部楼层
凯奇的片子懒得看了

0

主题

153

帖子

253

积分

龙少爷

Rank: 10Rank: 10

积分
253
发表于 2022-6-9 19:53:30 | 显示全部楼层
尼古拉斯·凯奇 重出江湖

1

主题

1383

帖子

2240

积分

赤血神龙

Rank: 20Rank: 20Rank: 20Rank: 20

积分
2240
发表于 2022-6-9 20:33:16 | 显示全部楼层
感谢航子分享!

0

主题

350

帖子

1695

积分

神龙

Rank: 15Rank: 15Rank: 15

积分
1695
发表于 2022-6-9 20:49:54 | 显示全部楼层
谢谢楼主分享

1

主题

396

帖子

1015

积分

神龙

Rank: 15Rank: 15Rank: 15

积分
1015
发表于 2022-6-9 21:20:06 | 显示全部楼层
谢谢分享影片哈哈

0

主题

3961

帖子

5561

积分

海龙王

Rank: 25Rank: 25Rank: 25Rank: 25Rank: 25

积分
5561
发表于 2022-6-9 22:36:18 | 显示全部楼层
感谢航子的分享

0

主题

8217

帖子

7948

积分

海龙王

Rank: 25Rank: 25Rank: 25Rank: 25Rank: 25

积分
7948
发表于 2022-6-9 22:56:35 | 显示全部楼层
尼古拉斯.基治现在真的是烂片之王了,再没有以前成名时的辉煌了,期待这部影片是他的翻身之作。感谢航子分享!

0

主题

203

帖子

2547

积分

赤血神龙

Rank: 20Rank: 20Rank: 20Rank: 20

积分
2547
发表于 2022-6-9 23:07:08 | 显示全部楼层
楼主辛苦,多谢分享。

1

主题

1355

帖子

3678

积分

赤血神龙

Rank: 20Rank: 20Rank: 20Rank: 20

积分
3678
QQ
发表于 2022-6-9 23:22:46 | 显示全部楼层
tks for share...............

467

主题

1万

帖子

1万

积分

神界龙王

Rank: 30Rank: 30Rank: 30Rank: 30

积分
19747

龙网爱心勋章

发表于 2022-6-10 00:03:02 | 显示全部楼层
感谢楼主分享

0

主题

170

帖子

2083

积分

赤血神龙

Rank: 20Rank: 20Rank: 20Rank: 20

积分
2083
发表于 2022-6-10 00:18:04 | 显示全部楼层
感谢航子辛苦发片~!

0

主题

2183

帖子

4055

积分

赤血神龙

Rank: 20Rank: 20Rank: 20Rank: 20

积分
4055
QQ
发表于 2022-6-10 05:13:08 | 显示全部楼层
感谢航子分享
一切终会过去
您需要登录后才可以回帖 登录 | 立即注册

本版积分规则

小黑屋|梦幻天堂·龙网

GMT+8, 2022-7-5 14:29 , Processed in 0.253554 second(s), 28 queries , Gzip On.

Powered by Discuz! X3.2

© 2001-2013 Comsenz Inc.

快速回复 返回顶部 返回列表