梦幻天堂·龙网

 找回密码
 立即注册
查看: 13980|回复: 154

[最新剧集龙网转发] 【龙网转发】【2019】【爱,死亡和机器人.第一季.全18集】【WebDL-1080p.MKV】【中英】

  [复制链接]

2746

主题

3万

帖子

7万

积分

九鼎龙王·坛主

偶系漂漂滴龙民

Rank: 46Rank: 46Rank: 46Rank: 46Rank: 46Rank: 46

积分
75482

航子大神勋章

发表于 2022-5-31 19:09:37 | 显示全部楼层 |阅读模式
海报



译  名 爱,死亡和机器人 第一季/爱 x 死 x 机器人(台)/爱.死.机械人(港)/爱、死亡 & 机器人/爱、死亡 + 机器人
片  名 Love, Death & Robots Season 1
年  代 2019
国  家 美国
类  别 动画/科幻/奇幻/恐怖/喜剧/短片
语  言 英语
字  幕 中英/中繁/英文
评  分 9.2/10 from 425,994 users
链  接 https://movie.douban.com/subject/30424374
文件大小 9.40 GB
单集片长 15 Min
集  数 18
导  演 维克多·马尔多纳多 Victor Maldonado
     加布里埃尔·彭纳基奥利 Gabriele Pennacchioli
     阿尔弗雷多·托雷斯 Alfredo Torres
     弗兰克·巴尔森 Franck Balson
     阿尔贝托·米尔戈 Alberto Mielgo
     蒂姆·米勒 Tim Miller
     达米安·纽诺 Damian Nenow
     杰罗姆·陈 Jerome Chen
     维塔利·舒舒科 Vitaliy Shushko
     欧文·沙利文 Owen Sullivan
     罗伯特·瓦利 Robert Valley
     戴夫·威尔逊 Dave Wilson
     乔恩·叶 Jon Yeo
     哈维尔·雷西奥·格雷西亚 Javier Recio Gracia
主  演 斯科特·怀特 Scott Whyte
     诺兰·诺斯 Nolan North
     马修·杨·金 Matthew Yang King
     迈克尔·本耶尔 Michael Benyaer
     乔什·布雷纳 Josh Brener
     艾莉·康德伦 Elly Condron
     亨利·杜思韦特 Henry Douthwaite
     亚伦·希梅尔斯坦 Aaron Himelstein
     斯蒂芬·卡皮契奇 Stefan Kapicic
     莫里斯·拉马奇 Maurice LaMarche
     艾米丽·奥布莱恩 Emily O'Brien
     凯文·迈克尔·理查德森 Kevin Michael Richardson
     海伦·萨德勒 Helen Sadler
     伊兰妮·谭 Elaine Tan

简介

  这部名为《爱,死亡和机器人》的动画短片合集由18部分组成,每部分时长5-15分钟。这些短片涵盖多种类型,包括科幻、奇幻、恐怖和喜剧;这些短片也将包含多种形式,包括传统2D和3DCGI短片。

  《爱,死亡和机器人》汲取了众多原著小说的灵感,然后将大众作品总是刻意避免的悲观主义、成人向、猎奇风展现得淋漓尽致。里面充斥着挑动肾上腺素的血腥、暴力、情色、恐怖元素,Geek们最爱的机甲、怪兽、科幻、赛博朋克统统扔进去,只为创造出一场风格多元的视觉盛宴。总的说来,《爱,死亡和机器人》是一部很有趣的作品,无论是硬核动漫迷,还是对媒体革新感兴趣的观众,都值得一看。

Video
Format                         : HEVC
Format/Info                    : High Efficiency Video Coding
Format profile                 : Main 10@L4@Main
Codec ID                       : V_MPEGH/ISO/HEVC
Duration                       : 17 min 28 s
Bit rate                       : 5 114 kb/s
Width                          : 1 920 pixels
Height                         : 1 080 pixels
Display aspect ratio           : 16:9
Frame rate mode                : Constant
Frame rate                     : 24.000 FPS
Color space                    : YUV
Chroma subsampling             : 4:2:0
Bit depth                      : 10 bits
Bits/(Pixel*Frame)             : 0.103
Stream size                    : 639 MiB (85%)
Color range                    : Limited
Color primaries                : BT.709
Transfer characteristics       : BT.709
Matrix coefficients            : BT.709

Audio
Format                         : E-AC-3 JOC
Format/Info                    : Enhanced AC-3 with Joint Object Coding
Commercial name                : Dolby Digital Plus with Dolby Atmos
Codec ID                       : A_EAC3
Duration                       : 17 min 28 s
Bit rate mode                  : Constant
Bit rate                       : 768 kb/s
Channel(s)                     : 6 channels
Channel layout                 : L R C LFE Ls Rs
Sampling rate                  : 48.0 kHz
Frame rate                     : 31.250 FPS (1536 SPF)
Compression mode               : Lossy
Stream size                    : 96.0 MiB (13%)
Service kind                   : Complete Main
Complexity index               : 16
Number of dynamic objects      : 15
Bed channel count              : 1 channel
Bed channel configuration      : LFE

截图






BT种子下载
梦幻天堂·龙网(www.LWgod.org).爱,死亡和机器人.第一季.全18集.torrent (50.21 KB, 下载次数: 7379)

2746

主题

3万

帖子

7万

积分

九鼎龙王·坛主

偶系漂漂滴龙民

Rank: 46Rank: 46Rank: 46Rank: 46Rank: 46Rank: 46

积分
75482

航子大神勋章

 楼主| 发表于 2022-5-31 19:50:37 | 显示全部楼层
  1. 【龙网转发】【2019】【爱,死亡和机器人.第一季.全18集】【WebDL-1080p.MKV】【中英】
复制代码

  1. 海报

  2. [img]http://img.longwangbt.com/-10-/05.31/a/00.jpg[/img]

  3. 译  名 爱,死亡和机器人 第一季/爱 x 死 x 机器人(台)/爱.死.机械人(港)/爱、死亡 & 机器人/爱、死亡 + 机器人
  4. 片  名 Love, Death & Robots Season 1
  5. 年  代 2019
  6. 国  家 美国
  7. 类  别 动画/科幻/奇幻/恐怖/喜剧/短片
  8. 语  言 英语
  9. 字  幕 中英/中繁/英文
  10. 评  分 [color=red]9.2/10 from 425,994 users[/color]
  11. 链  接 [url=http://www.lwgod.org]https://movie.douban.com/subject/30424374[/url]
  12. 文件大小 9.40 GB
  13. 单集片长 15 Min
  14. 集  数 18
  15. 导  演 维克多·马尔多纳多 Victor Maldonado
  16.      加布里埃尔·彭纳基奥利 Gabriele Pennacchioli
  17.      阿尔弗雷多·托雷斯 Alfredo Torres
  18.      弗兰克·巴尔森 Franck Balson
  19.      阿尔贝托·米尔戈 Alberto Mielgo
  20.      蒂姆·米勒 Tim Miller
  21.      达米安·纽诺 Damian Nenow
  22.      杰罗姆·陈 Jerome Chen
  23.      维塔利·舒舒科 Vitaliy Shushko
  24.      欧文·沙利文 Owen Sullivan
  25.      罗伯特·瓦利 Robert Valley
  26.      戴夫·威尔逊 Dave Wilson
  27.      乔恩·叶 Jon Yeo
  28.      哈维尔·雷西奥·格雷西亚 Javier Recio Gracia
  29. 主  演 斯科特·怀特 Scott Whyte
  30.      诺兰·诺斯 Nolan North
  31.      马修·杨·金 Matthew Yang King
  32.      迈克尔·本耶尔 Michael Benyaer
  33.      乔什·布雷纳 Josh Brener
  34.      艾莉·康德伦 Elly Condron
  35.      亨利·杜思韦特 Henry Douthwaite
  36.      亚伦·希梅尔斯坦 Aaron Himelstein
  37.      斯蒂芬·卡皮契奇 Stefan Kapicic
  38.      莫里斯·拉马奇 Maurice LaMarche
  39.      艾米丽·奥布莱恩 Emily O'Brien
  40.      凯文·迈克尔·理查德森 Kevin Michael Richardson
  41.      海伦·萨德勒 Helen Sadler
  42.      伊兰妮·谭 Elaine Tan

  43. 简介

  44.   这部名为《爱,死亡和机器人》的动画短片合集由18部分组成,每部分时长5-15分钟。这些短片涵盖多种类型,包括科幻、奇幻、恐怖和喜剧;这些短片也将包含多种形式,包括传统2D和3DCGI短片。

  45.   《爱,死亡和机器人》汲取了众多原著小说的灵感,然后将大众作品总是刻意避免的悲观主义、成人向、猎奇风展现得淋漓尽致。里面充斥着挑动肾上腺素的血腥、暴力、情色、恐怖元素,Geek们最爱的机甲、怪兽、科幻、赛博朋克统统扔进去,只为创造出一场风格多元的视觉盛宴。总的说来,《爱,死亡和机器人》是一部很有趣的作品,无论是硬核动漫迷,还是对媒体革新感兴趣的观众,都值得一看。

  46. [quote][size=2]Video
  47. Format                         : HEVC
  48. Format/Info                    : High Efficiency Video Coding
  49. Format profile                 : Main 10@L4@Main
  50. Codec ID                       : V_MPEGH/ISO/HEVC
  51. Duration                       : 17 min 28 s
  52. Bit rate                       : 5 114 kb/s
  53. Width                          : 1 920 pixels
  54. Height                         : 1 080 pixels
  55. Display aspect ratio           : 16:9
  56. Frame rate mode                : Constant
  57. Frame rate                     : 24.000 FPS
  58. Color space                    : YUV
  59. Chroma subsampling             : 4:2:0
  60. Bit depth                      : 10 bits
  61. Bits/(Pixel*Frame)             : 0.103
  62. Stream size                    : 639 MiB (85%)
  63. Color range                    : Limited
  64. Color primaries                : BT.709
  65. Transfer characteristics       : BT.709
  66. Matrix coefficients            : BT.709

  67. Audio
  68. Format                         : E-AC-3 JOC
  69. Format/Info                    : Enhanced AC-3 with Joint Object Coding
  70. Commercial name                : Dolby Digital Plus with Dolby Atmos
  71. Codec ID                       : A_EAC3
  72. Duration                       : 17 min 28 s
  73. Bit rate mode                  : Constant
  74. Bit rate                       : 768 kb/s
  75. Channel(s)                     : 6 channels
  76. Channel layout                 : L R C LFE Ls Rs
  77. Sampling rate                  : 48.0 kHz
  78. Frame rate                     : 31.250 FPS (1536 SPF)
  79. Compression mode               : Lossy
  80. Stream size                    : 96.0 MiB (13%)
  81. Service kind                   : Complete Main
  82. Complexity index               : 16
  83. Number of dynamic objects      : 15
  84. Bed channel count              : 1 channel
  85. Bed channel configuration      : LFE[/size][/quote]
  86. 截图

  87. [img]http://img.longwangbt.com/-10-/05.31/a/01.jpg[/img]

  88. [img]http://img.longwangbt.com/-10-/05.31/a/02.jpg[/img]
复制代码

2

主题

263

帖子

2275

积分

赤血神龙

Rank: 20Rank: 20Rank: 20Rank: 20

积分
2275
发表于 2022-5-31 20:01:08 | 显示全部楼层
感谢,太棒了。这个版本

0

主题

22

帖子

445

积分

龙少爷

Rank: 10Rank: 10

积分
445
发表于 2022-5-31 20:07:02 | 显示全部楼层
这个东西好啊!

1

主题

597

帖子

1688

积分

神龙

Rank: 15Rank: 15Rank: 15

积分
1688
发表于 2022-5-31 20:36:12 | 显示全部楼层
必须下载保留

1

主题

396

帖子

1015

积分

神龙

Rank: 15Rank: 15Rank: 15

积分
1015
发表于 2022-5-31 20:47:22 | 显示全部楼层
谢谢分享美剧

0

主题

170

帖子

2083

积分

赤血神龙

Rank: 20Rank: 20Rank: 20Rank: 20

积分
2083
发表于 2022-5-31 20:49:12 | 显示全部楼层
感谢航子辛苦发片~!

0

主题

350

帖子

1695

积分

神龙

Rank: 15Rank: 15Rank: 15

积分
1695
发表于 2022-5-31 21:01:49 | 显示全部楼层
谢谢楼主分享

0

主题

412

帖子

760

积分

龙的传人

Rank: 13Rank: 13Rank: 13

积分
760
发表于 2022-5-31 21:27:12 | 显示全部楼层
THANKS FOR SHARING!

1

主题

146

帖子

580

积分

龙的传人

Rank: 13Rank: 13Rank: 13

积分
580
发表于 2022-5-31 21:50:41 | 显示全部楼层
谢谢楼主分享

0

主题

133

帖子

289

积分

龙少爷

Rank: 10Rank: 10

积分
289
发表于 2022-5-31 22:02:21 | 显示全部楼层
感谢,太棒了。这个版本

0

主题

5877

帖子

6345

积分

海龙王

Rank: 25Rank: 25Rank: 25Rank: 25Rank: 25

积分
6345
发表于 2022-5-31 22:41:55 | 显示全部楼层
不错,谢谢分享。。。。

0

主题

7114

帖子

7335

积分

霸王龙·贵宾

狱血黑龙

Rank: 18Rank: 18

积分
7335
发表于 2022-5-31 22:53:16 | 显示全部楼层
感谢航子的好片分享,支持支持
当你不再拥有的时候,你唯一可以做的,就是令自己不要忘记!

0

主题

203

帖子

2547

积分

赤血神龙

Rank: 20Rank: 20Rank: 20Rank: 20

积分
2547
发表于 2022-5-31 23:19:38 | 显示全部楼层
楼主辛苦,多谢分享。

0

主题

86

帖子

2478

积分

赤血神龙

Rank: 20Rank: 20Rank: 20Rank: 20

积分
2478

龙网爱心勋章

发表于 2022-5-31 23:25:27 | 显示全部楼层
感谢航子分享,双语版收藏一下
您需要登录后才可以回帖 登录 | 立即注册

本版积分规则

小黑屋|梦幻天堂·龙网

GMT+8, 2022-7-5 13:45 , Processed in 0.257008 second(s), 26 queries , Gzip On.

Powered by Discuz! X3.2

© 2001-2013 Comsenz Inc.

快速回复 返回顶部 返回列表