梦幻天堂·龙网

 找回密码
 立即注册
查看: 25536|回复: 265

[最新剧集龙网转发] 【龙网转发】【美2022炸裂视效必看】【史前星球.全5集】【WebDL-1080p.MKV】【中字】

  [复制链接]

2746

主题

3万

帖子

7万

积分

九鼎龙王·坛主

偶系漂漂滴龙民

Rank: 46Rank: 46Rank: 46Rank: 46Rank: 46Rank: 46

积分
75482

航子大神勋章

发表于 2022-5-29 22:56:46 | 显示全部楼层 |阅读模式
海报





译  名 史前星球
片  名 Prehistoric Planet
年  代 2022
国  家 美国/英国
类  别 纪录片
语  言 英语
字  幕 中简/中繁/英文
评  分 9.5/10 from 5,858 users
链  接 https://movie.douban.com/subject/34603375
文件大小 15.2 GB
单集片长 45 Min
集  数 5
导  演 亚当·瓦德兹 Adam Valdez
     安德鲁·R·琼斯 Andrew R. Jones
主  演 大卫·爱登堡 David Attenborough

简介

  该剧结合了野生动物电影制作技术和最新的古生物学知识,以独一无二的方式揭开古代地球壮观的动物栖息地的面纱。该剧集由BBC Studios自然历史部门的知名团队支持下制作。《史前星球》以白垩纪时代的环境为背景,描绘了海岸、沙漠、河流、冰雪世界和森林的场景,展示了鲜为人知且令人惊讶的恐龙生活。

Video
Format                         : AVC
Format/Info                    : Advanced Video Codec
Format profile                 : High@L4
Format settings                : CABAC / 4 Ref Frames
Format settings, CABAC         : Yes
Format settings, Reference fra : 4 frames
Codec ID                       : V_MPEG4/ISO/AVC
Duration                       : 42 min 3 s
Bit rate                       : 9 764 kb/s
Width                          : 1 920 pixels
Height                         : 1 080 pixels
Display aspect ratio           : 16:9
Frame rate mode                : Constant
Frame rate                     : 23.976 (24000/1001) FPS
Color space                    : YUV
Chroma subsampling             : 4:2:0
Bit depth                      : 8 bits
Scan type                      : Progressive
Bits/(Pixel*Frame)             : 0.196
Stream size                    : 2.87 GiB (92%)
Color range                    : Limited
Color primaries                : BT.709
Transfer characteristics       : BT.709
Matrix coefficients            : BT.709

Audio
Format                         : E-AC-3 JOC
Format/Info                    : Enhanced AC-3 with Joint Object Coding
Commercial name                : Dolby Digital Plus with Dolby Atmos
Codec ID                       : A_EAC3
Duration                       : 42 min 3 s
Bit rate mode                  : Constant
Bit rate                       : 768 kb/s
Channel(s)                     : 6 channels
Channel layout                 : L R C LFE Ls Rs
Sampling rate                  : 48.0 kHz
Frame rate                     : 31.250 FPS (1536 SPF)
Compression mode               : Lossy
Stream size                    : 231 MiB (7%)
Service kind                   : Complete Main
Complexity index               : 16
Number of dynamic objects      : 15
Bed channel count              : 1 channel
Bed channel configuration      : LFE

截图




BT种子下载
梦幻天堂·龙网(www.LWgod.org).史前星球.全5集.torrent (77.9 KB, 下载次数: 14560)

2746

主题

3万

帖子

7万

积分

九鼎龙王·坛主

偶系漂漂滴龙民

Rank: 46Rank: 46Rank: 46Rank: 46Rank: 46Rank: 46

积分
75482

航子大神勋章

 楼主| 发表于 2022-5-29 23:32:41 | 显示全部楼层
  1. 【龙网转发】【美2022炸裂视效必看】【史前星球.全5集】【WebDL-1080p.MKV】【中字】
复制代码

  1. 海报

  2. [img]http://img.longwangbt.com/-10-/05.29/s/00.jpg[/img]

  3. [img]http://img.longwangbt.com/-10-/05.29/s/01.jpg[/img]

  4. 译  名 史前星球
  5. 片  名 Prehistoric Planet
  6. 年  代 2022
  7. 国  家 美国/英国
  8. 类  别 纪录片
  9. 语  言 英语
  10. 字  幕 中简/中繁/英文
  11. 评  分 [color=red]9.5/10 from 5,858 users[/color]
  12. 链  接 [url=http://www.lwgod.org]https://movie.douban.com/subject/34603375[/url]
  13. 文件大小 15.2 GB
  14. 单集片长 45 Min
  15. 集  数 5
  16. 导  演 亚当·瓦德兹 Adam Valdez
  17.      安德鲁·R·琼斯 Andrew R. Jones
  18. 主  演 大卫·爱登堡 David Attenborough

  19. 简介

  20.   该剧结合了野生动物电影制作技术和最新的古生物学知识,以独一无二的方式揭开古代地球壮观的动物栖息地的面纱。该剧集由BBC Studios自然历史部门的知名团队支持下制作。《史前星球》以白垩纪时代的环境为背景,描绘了海岸、沙漠、河流、冰雪世界和森林的场景,展示了鲜为人知且令人惊讶的恐龙生活。

  21. [quote][size=2]Video
  22. Format                         : AVC
  23. Format/Info                    : Advanced Video Codec
  24. Format profile                 : High@L4
  25. Format settings                : CABAC / 4 Ref Frames
  26. Format settings, CABAC         : Yes
  27. Format settings, Reference fra : 4 frames
  28. Codec ID                       : V_MPEG4/ISO/AVC
  29. Duration                       : 42 min 3 s
  30. Bit rate                       : 9 764 kb/s
  31. Width                          : 1 920 pixels
  32. Height                         : 1 080 pixels
  33. Display aspect ratio           : 16:9
  34. Frame rate mode                : Constant
  35. Frame rate                     : 23.976 (24000/1001) FPS
  36. Color space                    : YUV
  37. Chroma subsampling             : 4:2:0
  38. Bit depth                      : 8 bits
  39. Scan type                      : Progressive
  40. Bits/(Pixel*Frame)             : 0.196
  41. Stream size                    : 2.87 GiB (92%)
  42. Color range                    : Limited
  43. Color primaries                : BT.709
  44. Transfer characteristics       : BT.709
  45. Matrix coefficients            : BT.709

  46. Audio
  47. Format                         : E-AC-3 JOC
  48. Format/Info                    : Enhanced AC-3 with Joint Object Coding
  49. Commercial name                : Dolby Digital Plus with Dolby Atmos
  50. Codec ID                       : A_EAC3
  51. Duration                       : 42 min 3 s
  52. Bit rate mode                  : Constant
  53. Bit rate                       : 768 kb/s
  54. Channel(s)                     : 6 channels
  55. Channel layout                 : L R C LFE Ls Rs
  56. Sampling rate                  : 48.0 kHz
  57. Frame rate                     : 31.250 FPS (1536 SPF)
  58. Compression mode               : Lossy
  59. Stream size                    : 231 MiB (7%)
  60. Service kind                   : Complete Main
  61. Complexity index               : 16
  62. Number of dynamic objects      : 15
  63. Bed channel count              : 1 channel
  64. Bed channel configuration      : LFE[/size][/quote]
  65. 截图

  66. [img]http://img.longwangbt.com/-10-/05.29/s/02.jpg[/img]
复制代码

1

主题

1355

帖子

3678

积分

赤血神龙

Rank: 20Rank: 20Rank: 20Rank: 20

积分
3678
QQ
发表于 2022-5-29 23:53:07 | 显示全部楼层
tks for share..............

0

主题

170

帖子

2083

积分

赤血神龙

Rank: 20Rank: 20Rank: 20Rank: 20

积分
2083
发表于 2022-5-30 00:04:21 | 显示全部楼层
感谢航子辛苦发片~~!

2

主题

246

帖子

1733

积分

神龙

Rank: 15Rank: 15Rank: 15

积分
1733
发表于 2022-5-30 00:08:11 | 显示全部楼层
x谢谢分享谢谢斑竹
山高我为--峰--光无限好

2

主题

53

帖子

777

积分

龙的传人

Rank: 13Rank: 13Rank: 13

积分
777
发表于 2022-5-30 00:12:07 | 显示全部楼层
感谢航子,我喜欢这样的记录片

2

主题

53

帖子

777

积分

龙的传人

Rank: 13Rank: 13Rank: 13

积分
777
发表于 2022-5-30 00:13:04 | 显示全部楼层
感谢航子,我喜欢这样的教育科普类的视频

2

主题

53

帖子

777

积分

龙的传人

Rank: 13Rank: 13Rank: 13

积分
777
发表于 2022-5-30 00:13:16 | 显示全部楼层
感谢航子,我喜欢这样的教育科普类的视频

2

主题

967

帖子

2042

积分

升龙霸·VIP

Rank: 22Rank: 22Rank: 22Rank: 22

积分
2042

龙网VIP·银星龙网VIP·银牌

发表于 2022-5-30 00:39:00 | 显示全部楼层
航子辛苦

2

主题

967

帖子

2042

积分

升龙霸·VIP

Rank: 22Rank: 22Rank: 22Rank: 22

积分
2042

龙网VIP·银星龙网VIP·银牌

发表于 2022-5-30 00:42:41 | 显示全部楼层
航子辛苦

2

主题

967

帖子

2042

积分

升龙霸·VIP

Rank: 22Rank: 22Rank: 22Rank: 22

积分
2042

龙网VIP·银星龙网VIP·银牌

发表于 2022-5-30 00:42:47 | 显示全部楼层
航子辛苦

51

主题

8380

帖子

1万

积分

神界龙王

性感尤物区斑竹

Rank: 30Rank: 30Rank: 30Rank: 30

积分
10734

龙网爱心勋章

发表于 2022-5-30 00:57:41 | 显示全部楼层
这个好看!真实!
乱,是佳人!
纯,属虚构!
白天很傻很天真,晚上很黄很暴力!
文艺即装B,装B装得好是牛B,装坏了是傻B!
谁也没有看见风,
不用说你和我了,
但是钱币在飘的时候,
我们知道风在算钱!

17

主题

3万

帖子

4万

积分

神界龙王

Rank: 30Rank: 30Rank: 30Rank: 30

积分
42461
发表于 2022-5-30 00:59:19 | 显示全部楼层
果然是炸裂视效,看完不后悔

0

主题

203

帖子

2547

积分

赤血神龙

Rank: 20Rank: 20Rank: 20Rank: 20

积分
2547
发表于 2022-5-30 03:30:51 | 显示全部楼层
楼主辛苦,多谢分享。

0

主题

582

帖子

1161

积分

神龙

Rank: 15Rank: 15Rank: 15

积分
1161
发表于 2022-5-30 04:50:37 | 显示全部楼层
多谢分享!
您需要登录后才可以回帖 登录 | 立即注册

本版积分规则

小黑屋|梦幻天堂·龙网

GMT+8, 2022-7-5 15:38 , Processed in 0.258338 second(s), 29 queries , Gzip On.

Powered by Discuz! X3.2

© 2001-2013 Comsenz Inc.

快速回复 返回顶部 返回列表