梦幻天堂·龙网

 找回密码
 立即注册
查看: 15674|回复: 108

[最新电影龙网转发] 【龙网转发】【中2021超票房高分喜剧悬疑】【扬名立万】【WebDL-1080p.MKV】【国语】

  [复制链接]

2746

主题

3万

帖子

7万

积分

九鼎龙王·坛主

偶系漂漂滴龙民

Rank: 46Rank: 46Rank: 46Rank: 46Rank: 46Rank: 46

积分
75482

航子大神勋章

发表于 2022-5-25 20:18:20 | 显示全部楼层 |阅读模式
海报





译  名 扬名立万/一部电影的诞生
片  名 Be Somebody
年  代 2021
国  家 中国
类  别 喜剧/悬疑/剧情
语  言 汉语普通话
字  幕 中文硬字幕
评  分 7.4/10 from 601,617 users
链  接 https://movie.douban.com/subject/35422807
文件大小 5.24 GB
片  长 123 Min
导  演 刘循子墨 Xunzimo Liu
主  演 尹正 Zheng Yin
     邓家佳 Jiajia Deng
     喻恩泰 Entai Yu
     杨皓宇 Haoyu Yang
     陈明昊 Minghao Chen
     秦霄贤 Xiaoxian Qin
     张本煜 Benyu Zhang
     柯达 Da Ke
     邓恩熙 Enxi Deng
     余皑磊 Ailei Yu
     白客 White. K

简介

  月黑风高之夜,一群电影人被秘密召集到一起,欲将轰动一时的血案翻拍成电影,借此扬名立万。殊不知他们正身处案发现场,并步步陷入一个巨大迷局之中,而凶手就在他们中间……

  伴随着利欲熏天的创作风暴,案件背后的故事似乎也更加扑朔迷离,戏中戏、案中案、局中局、人外人,环环相扣,一场野心与良心的较量愈演愈烈。究竟是命悬一线,还是另有惊天逆转?爱与温暖的血色花又能否从快将干涸的血河中终极绽放?一切都有待揭开。

Video
Format                         : AVC
Format/Info                    : Advanced Video Codec
Format profile                 : High@L4
Format settings                : CABAC / 4 Ref Frames
Format settings, CABAC         : Yes
Format settings, Reference fra : 4 frames
Codec ID                       : V_MPEG4/ISO/AVC
Duration                       : 2 h 3 min
Bit rate                       : 5 774 kb/s
Width                          : 1 920 pixels
Height                         : 808 pixels
Display aspect ratio           : 2.40:1
Frame rate mode                : Constant
Frame rate                     : 24.000 FPS
Color space                    : YUV
Chroma subsampling             : 4:2:0
Bit depth                      : 8 bits
Scan type                      : Progressive
Bits/(Pixel*Frame)             : 0.155
Stream size                    : 4.97 GiB (95%)
Writing library                : BiliBili H264 Encoder v1.0
Color range                    : Limited
Color primaries                : BT.709
Transfer characteristics       : BT.709
Matrix coefficients            : BT.709

Audio
Format                         : AAC LC
Format/Info                    : Advanced Audio Codec Low Complexity
Codec ID                       : A_AAC-2
Duration                       : 2 h 3 min
Bit rate                       : 320 kb/s
Channel(s)                     : 2 channels
Channel layout                 : L R
Sampling rate                  : 48.0 kHz
Frame rate                     : 46.875 FPS (1024 SPF)
Compression mode               : Lossy
Stream size                    : 282 MiB (5%)

截图




BT种子下载
梦幻天堂·龙网(www.LWgod.org).扬名立万.一部电影的诞生.torrent (27.5 KB, 下载次数: 5977)

2746

主题

3万

帖子

7万

积分

九鼎龙王·坛主

偶系漂漂滴龙民

Rank: 46Rank: 46Rank: 46Rank: 46Rank: 46Rank: 46

积分
75482

航子大神勋章

 楼主| 发表于 2022-5-25 20:31:19 | 显示全部楼层
  1. 【龙网转发】【中2021超票房高分喜剧悬疑】【扬名立万】【WebDL-1080p.MKV】【国语】
复制代码

  1. 海报

  2. [img]http://img.longwangbt.com/-10-/05.25/y/00.jpg[/img]

  3. [img]http://img.longwangbt.com/-10-/05.25/y/01.jpg[/img]

  4. 译  名 扬名立万/一部电影的诞生
  5. 片  名 Be Somebody
  6. 年  代 2021
  7. 国  家 中国
  8. 类  别 喜剧/悬疑/剧情
  9. 语  言 汉语普通话
  10. 字  幕 中文硬字幕
  11. 评  分 7.4/10 from 601,617 users
  12. 链  接 [url=http://www.lwgod.org]https://movie.douban.com/subject/35422807[/url]
  13. 文件大小 5.24 GB
  14. 片  长 123 Min
  15. 导  演 刘循子墨 Xunzimo Liu
  16. 主  演 尹正 Zheng Yin
  17.      邓家佳 Jiajia Deng
  18.      喻恩泰 Entai Yu
  19.      杨皓宇 Haoyu Yang
  20.      陈明昊 Minghao Chen
  21.      秦霄贤 Xiaoxian Qin
  22.      张本煜 Benyu Zhang
  23.      柯达 Da Ke
  24.      邓恩熙 Enxi Deng
  25.      余皑磊 Ailei Yu
  26.      白客 White. K

  27. 简介

  28.   月黑风高之夜,一群电影人被秘密召集到一起,欲将轰动一时的血案翻拍成电影,借此扬名立万。殊不知他们正身处案发现场,并步步陷入一个巨大迷局之中,而凶手就在他们中间……

  29.   伴随着利欲熏天的创作风暴,案件背后的故事似乎也更加扑朔迷离,戏中戏、案中案、局中局、人外人,环环相扣,一场野心与良心的较量愈演愈烈。究竟是命悬一线,还是另有惊天逆转?爱与温暖的血色花又能否从快将干涸的血河中终极绽放?一切都有待揭开。

  30. [quote][size=2]Video
  31. Format                         : AVC
  32. Format/Info                    : Advanced Video Codec
  33. Format profile                 : High@L4
  34. Format settings                : CABAC / 4 Ref Frames
  35. Format settings, CABAC         : Yes
  36. Format settings, Reference fra : 4 frames
  37. Codec ID                       : V_MPEG4/ISO/AVC
  38. Duration                       : 2 h 3 min
  39. Bit rate                       : 5 774 kb/s
  40. Width                          : 1 920 pixels
  41. Height                         : 808 pixels
  42. Display aspect ratio           : 2.40:1
  43. Frame rate mode                : Constant
  44. Frame rate                     : 24.000 FPS
  45. Color space                    : YUV
  46. Chroma subsampling             : 4:2:0
  47. Bit depth                      : 8 bits
  48. Scan type                      : Progressive
  49. Bits/(Pixel*Frame)             : 0.155
  50. Stream size                    : 4.97 GiB (95%)
  51. Writing library                : BiliBili H264 Encoder v1.0
  52. Color range                    : Limited
  53. Color primaries                : BT.709
  54. Transfer characteristics       : BT.709
  55. Matrix coefficients            : BT.709

  56. Audio
  57. Format                         : AAC LC
  58. Format/Info                    : Advanced Audio Codec Low Complexity
  59. Codec ID                       : A_AAC-2
  60. Duration                       : 2 h 3 min
  61. Bit rate                       : 320 kb/s
  62. Channel(s)                     : 2 channels
  63. Channel layout                 : L R
  64. Sampling rate                  : 48.0 kHz
  65. Frame rate                     : 46.875 FPS (1024 SPF)
  66. Compression mode               : Lossy
  67. Stream size                    : 282 MiB (5%)[/size][/quote]
  68. 截图

  69. [img]http://img.longwangbt.com/-10-/05.25/y/02.jpg[/img]
复制代码

0

主题

459

帖子

627

积分

龙的传人

Rank: 13Rank: 13Rank: 13

积分
627
发表于 2022-5-25 21:31:35 | 显示全部楼层
感谢航子分享!

0

主题

412

帖子

760

积分

龙的传人

Rank: 13Rank: 13Rank: 13

积分
760
发表于 2022-5-25 21:45:09 | 显示全部楼层
THANKS FOR SHARING!

0

主题

8217

帖子

7948

积分

海龙王

Rank: 25Rank: 25Rank: 25Rank: 25Rank: 25

积分
7948
发表于 2022-5-25 22:52:54 | 显示全部楼层
确实是部高分票房的国产优秀电影,值得观赏。感谢航子分享!

0

主题

203

帖子

2547

积分

赤血神龙

Rank: 20Rank: 20Rank: 20Rank: 20

积分
2547
发表于 2022-5-25 22:58:47 | 显示全部楼层
楼主辛苦,多谢分享。

1

主题

1355

帖子

3678

积分

赤血神龙

Rank: 20Rank: 20Rank: 20Rank: 20

积分
3678
QQ
发表于 2022-5-26 00:34:48 | 显示全部楼层
tks for share...............

0

主题

2183

帖子

4055

积分

赤血神龙

Rank: 20Rank: 20Rank: 20Rank: 20

积分
4055
QQ
发表于 2022-5-26 06:01:02 | 显示全部楼层
感谢航子分享
一切终会过去

0

主题

582

帖子

1161

积分

神龙

Rank: 15Rank: 15Rank: 15

积分
1161
发表于 2022-5-26 08:59:27 | 显示全部楼层
多谢分享!

1

主题

94

帖子

263

积分

升龙霸·VIP

Rank: 22Rank: 22Rank: 22Rank: 22

积分
263

龙网VIP·银章

发表于 2022-5-26 09:07:24 | 显示全部楼层
感谢航子分享!

2

主题

527

帖子

950

积分

龙的传人

Rank: 13Rank: 13Rank: 13

积分
950
发表于 2022-5-26 09:15:49 | 显示全部楼层
感谢大神分享

0

主题

225

帖子

1044

积分

神龙

Rank: 15Rank: 15Rank: 15

积分
1044
发表于 2022-5-26 09:20:09 | 显示全部楼层
爱生活,爱分享,所到之处皆阳光!
总有看不完的电影,所以永远忘不了那个给你分享电影的人!

0

主题

976

帖子

3513

积分

赤血神龙

Rank: 20Rank: 20Rank: 20Rank: 20

积分
3513
发表于 2022-5-26 09:21:10 | 显示全部楼层
感謝航子的分享.

0

主题

2470

帖子

4355

积分

赤血神龙

Rank: 20Rank: 20Rank: 20Rank: 20

积分
4355
发表于 2022-5-26 09:22:17 | 显示全部楼层
楼主辛苦,多谢分享。

0

主题

878

帖子

2005

积分

赤血神龙

Rank: 20Rank: 20Rank: 20Rank: 20

积分
2005

龙网爱心勋章

发表于 2022-5-26 09:30:42 | 显示全部楼层
航子辛苦……….
您需要登录后才可以回帖 登录 | 立即注册

本版积分规则

小黑屋|梦幻天堂·龙网

GMT+8, 2022-7-5 15:02 , Processed in 0.245032 second(s), 27 queries , Gzip On.

Powered by Discuz! X3.2

© 2001-2013 Comsenz Inc.

快速回复 返回顶部 返回列表