梦幻天堂·龙网

 找回密码
 立即注册
查看: 20794|回复: 201

[最新剧集龙网转发] 【龙网转发】【2022】【爱,死亡和机器人.第三季.全9集】【WebDL-1080p.MKV】【中字】

  [复制链接]

2746

主题

3万

帖子

7万

积分

九鼎龙王·坛主

偶系漂漂滴龙民

Rank: 46Rank: 46Rank: 46Rank: 46Rank: 46Rank: 46

积分
75482

航子大神勋章

发表于 2022-5-22 22:02:41 | 显示全部楼层 |阅读模式
海报



译  名 爱,死亡和机器人 第三季/爱 x 死 x 机器人(台)/爱 · 死 · 机械人(港)/爱、死亡 + 机器人/爱、死亡 & 机器人
片  名 Love, Death & Robots Season 3
年  代 2022
国  家 美国
类  别 动画/科幻/奇幻/恐怖/短片
语  言 英语
字  幕 中简/中繁/英文
评  分 8.6/10 from 93668 users
链  接 https://movie.douban.com/subject/35436582
文件大小 5.00 GB
单集片长 20 Min
集  数 9
导  演 帕特里克·奥斯本 Patrick Osborne
     大卫·芬奇 David Fincher
     埃米莉·迪恩 Emily Dean
     罗伯特·比斯 Robert Bisi
     安迪·里昂 Andy Lyon
     吕寅荣 Jennifer Yuh
     蒂姆·米勒 Tim Miller
     卡洛斯·史蒂文斯 Carlos Stevens
     杰罗姆·陈 Jerome Chen
     阿尔贝托·米尔戈 Alberto Mielgo
主  演 乔什·布雷纳 Josh Brener
     加里·安东尼·威廉斯 Gary Anthony Williams
     凯蒂·洛斯 Katie Lowes
     克里斯·帕内尔 Chris Parnell
     特罗伊·贝克 Troy Baker
     凯文·杰克逊 Kevin Jackson
     弗雷德·塔特西奥 Fred Tatasciore
     安东尼·马克·巴罗 Anthony Mark Barrow
     查特尔·巴里 Chantelle Barry
     派瑞·申 Parry Shen
     泰姆·温特斯 Time Winters

简介

  本季一共9集,分别为:《三个机器人:退场策略》(帕特里克·奥斯本导演)、《差劲旅行》(大卫·芬奇导演)、《机器的脉动》(艾米丽·迪恩导演)、《迷你亡灵之夜》(罗伯托·毕斯、安迪·里昂导演)、《杀戮小队开杀》(吕寅荣导演)、《虫群》(提姆·米勒导演)、《梅森的老鼠》(卡洛斯·斯蒂文斯导演)、《隧道墓穴》(杰罗姆·陈导演)、《吉巴罗》(阿尔伯托·梅尔洛导演)。

  艾美奖获奖动画选集《爱、死亡 & 机器人》第三部回归,由蒂姆·米勒(《死侍》《终结者:黑暗命运》)和大卫·芬奇(《心灵猎人》《曼克》)担任监制。恐怖、想象力和美在新剧集中完美融合,从揭示古老的邪恶力量到喜剧般的末日,剧集以标志性的巧思和创造性的视觉效果,为观众带来令人震惊的奇幻、恐怖和科幻短篇故事。

Video
Format                         : AVC
Format/Info                    : Advanced Video Codec
Format profile                 : Main @ L4
Format settings                : CABAC / 3 Ref Frames
Format settings, CABAC         : Yes
Format settings, Reference fra : 3 frames
Codec ID                       : V_MPEG4/ISO/AVC
Duration                       : 11 min 26 s
Bit rate mode                  : Variable
Bit rate                       : 3 453 kb/s
Nominal bit rate               : 3 838 kb/s
Maximum bit rate               : 6 960 kb/s
Width                          : 1 920 pixels
Height                         : 1 080 pixels
Display aspect ratio           : 16:9
Frame rate mode                : Constant
Frame rate                     : 24.000 FPS
Color space                    : YUV
Chroma subsampling             : 4:2:0
Bit depth                      : 8 bits
Scan type                      : Progressive
Bits/(Pixel*Frame)             : 0.069
Stream size                    : 283 MiB (79%)

Audio
Format                         : E-AC-3 JOC
Format/Info                    : Enhanced AC-3 with Joint Object Coding
Commercial name                : Dolby Digital Plus with Dolby Atmos
Codec ID                       : A_EAC3
Duration                       : 11 min 26 s
Bit rate mode                  : Constant
Bit rate                       : 768 kb/s
Channel(s)                     : 6 channels
Channel layout                 : L R C LFE Ls Rs
Sampling rate                  : 48.0 kHz
Frame rate                     : 31.250 FPS (1536 SPF)
Compression mode               : Lossy
Stream size                    : 62.9 MiB (18%)
Service kind                   : Complete Main
Complexity index               : 16
Number of dynamic objects      : 15
Bed channel count              : 1 channel
Bed channel configuration      : LFE

截图






BT种子下载
梦幻天堂·龙网(www.LWgod.org).爱,死亡和机器人.第三季.全9集.torrent (27.18 KB, 下载次数: 11422)

2746

主题

3万

帖子

7万

积分

九鼎龙王·坛主

偶系漂漂滴龙民

Rank: 46Rank: 46Rank: 46Rank: 46Rank: 46Rank: 46

积分
75482

航子大神勋章

 楼主| 发表于 2022-5-22 22:36:49 | 显示全部楼层
  1. 【龙网转发】【2022】【爱,死亡和机器人.第三季.全9集】【WebDL-1080p.MKV】【中字】
复制代码

  1. 海报

  2. [img]http://img.longwangbt.com/-10-/05.22/a/00.jpg[/img]

  3. 译  名 爱,死亡和机器人 第三季/爱 x 死 x 机器人(台)/爱 · 死 · 机械人(港)/爱、死亡 + 机器人/爱、死亡 & 机器人
  4. 片  名 Love, Death & Robots Season 3
  5. 年  代 2022
  6. 国  家 美国
  7. 类  别 动画/科幻/奇幻/恐怖/短片
  8. 语  言 英语
  9. 字  幕 中简/中繁/英文
  10. 评  分 [color=red]8.6/10 from 93668 users[/color]
  11. 链  接 [url=http://www.lwgod.org]https://movie.douban.com/subject/35436582[/url]
  12. 文件大小 5.00 GB
  13. 单集片长 20 Min
  14. 集  数 9
  15. 导  演 帕特里克·奥斯本 Patrick Osborne
  16.      大卫·芬奇 David Fincher
  17.      埃米莉·迪恩 Emily Dean
  18.      罗伯特·比斯 Robert Bisi
  19.      安迪·里昂 Andy Lyon
  20.      吕寅荣 Jennifer Yuh
  21.      蒂姆·米勒 Tim Miller
  22.      卡洛斯·史蒂文斯 Carlos Stevens
  23.      杰罗姆·陈 Jerome Chen
  24.      阿尔贝托·米尔戈 Alberto Mielgo
  25. 主  演 乔什·布雷纳 Josh Brener
  26.      加里·安东尼·威廉斯 Gary Anthony Williams
  27.      凯蒂·洛斯 Katie Lowes
  28.      克里斯·帕内尔 Chris Parnell
  29.      特罗伊·贝克 Troy Baker
  30.      凯文·杰克逊 Kevin Jackson
  31.      弗雷德·塔特西奥 Fred Tatasciore
  32.      安东尼·马克·巴罗 Anthony Mark Barrow
  33.      查特尔·巴里 Chantelle Barry
  34.      派瑞·申 Parry Shen
  35.      泰姆·温特斯 Time Winters

  36. 简介

  37.   本季一共9集,分别为:《三个机器人:退场策略》(帕特里克·奥斯本导演)、《差劲旅行》(大卫·芬奇导演)、《机器的脉动》(艾米丽·迪恩导演)、《迷你亡灵之夜》(罗伯托·毕斯、安迪·里昂导演)、《杀戮小队开杀》(吕寅荣导演)、《虫群》(提姆·米勒导演)、《梅森的老鼠》(卡洛斯·斯蒂文斯导演)、《隧道墓穴》(杰罗姆·陈导演)、《吉巴罗》(阿尔伯托·梅尔洛导演)。

  38.   艾美奖获奖动画选集《爱、死亡 & 机器人》第三部回归,由蒂姆·米勒(《死侍》《终结者:黑暗命运》)和大卫·芬奇(《心灵猎人》《曼克》)担任监制。恐怖、想象力和美在新剧集中完美融合,从揭示古老的邪恶力量到喜剧般的末日,剧集以标志性的巧思和创造性的视觉效果,为观众带来令人震惊的奇幻、恐怖和科幻短篇故事。

  39. [quote][size=2]Video
  40. Format                         : AVC
  41. Format/Info                    : Advanced Video Codec
  42. Format profile                 : Main @ L4
  43. Format settings                : CABAC / 3 Ref Frames
  44. Format settings, CABAC         : Yes
  45. Format settings, Reference fra : 3 frames
  46. Codec ID                       : V_MPEG4/ISO/AVC
  47. Duration                       : 11 min 26 s
  48. Bit rate mode                  : Variable
  49. Bit rate                       : 3 453 kb/s
  50. Nominal bit rate               : 3 838 kb/s
  51. Maximum bit rate               : 6 960 kb/s
  52. Width                          : 1 920 pixels
  53. Height                         : 1 080 pixels
  54. Display aspect ratio           : 16:9
  55. Frame rate mode                : Constant
  56. Frame rate                     : 24.000 FPS
  57. Color space                    : YUV
  58. Chroma subsampling             : 4:2:0
  59. Bit depth                      : 8 bits
  60. Scan type                      : Progressive
  61. Bits/(Pixel*Frame)             : 0.069
  62. Stream size                    : 283 MiB (79%)

  63. Audio
  64. Format                         : E-AC-3 JOC
  65. Format/Info                    : Enhanced AC-3 with Joint Object Coding
  66. Commercial name                : Dolby Digital Plus with Dolby Atmos
  67. Codec ID                       : A_EAC3
  68. Duration                       : 11 min 26 s
  69. Bit rate mode                  : Constant
  70. Bit rate                       : 768 kb/s
  71. Channel(s)                     : 6 channels
  72. Channel layout                 : L R C LFE Ls Rs
  73. Sampling rate                  : 48.0 kHz
  74. Frame rate                     : 31.250 FPS (1536 SPF)
  75. Compression mode               : Lossy
  76. Stream size                    : 62.9 MiB (18%)
  77. Service kind                   : Complete Main
  78. Complexity index               : 16
  79. Number of dynamic objects      : 15
  80. Bed channel count              : 1 channel
  81. Bed channel configuration      : LFE[/size][/quote]
  82. 截图

  83. [img]http://img.longwangbt.com/-10-/05.22/a/01.jpg[/img]

  84. [img]http://img.longwangbt.com/-10-/05.22/a/02.jpg[/img]
复制代码

0

主题

203

帖子

2547

积分

赤血神龙

Rank: 20Rank: 20Rank: 20Rank: 20

积分
2547
发表于 2022-5-22 22:50:33 | 显示全部楼层
楼主辛苦,多谢分享。

0

主题

86

帖子

2478

积分

赤血神龙

Rank: 20Rank: 20Rank: 20Rank: 20

积分
2478

龙网爱心勋章

发表于 2022-5-22 22:52:40 | 显示全部楼层
感谢航子分享,比第二季好看

1

主题

146

帖子

580

积分

龙的传人

Rank: 13Rank: 13Rank: 13

积分
580
发表于 2022-5-22 23:08:47 | 显示全部楼层

感谢航子分享

0

主题

142

帖子

274

积分

龙少爷

Rank: 10Rank: 10

积分
274
发表于 2022-5-22 23:09:14 | 显示全部楼层
听说还不错,谢谢分享。

0

主题

459

帖子

627

积分

龙的传人

Rank: 13Rank: 13Rank: 13

积分
627
发表于 2022-5-22 23:20:53 | 显示全部楼层
感谢航子分享!

11

主题

22

帖子

54

积分

泡泡龙

Rank: 5Rank: 5Rank: 5

积分
54
QQ
发表于 2022-5-23 02:09:40 | 显示全部楼层
感谢航子分享!
善!!!!!!

0

主题

2183

帖子

4055

积分

赤血神龙

Rank: 20Rank: 20Rank: 20Rank: 20

积分
4055
QQ
发表于 2022-5-23 05:10:10 | 显示全部楼层
感谢航子分享
一切终会过去

0

主题

151

帖子

231

积分

龙少爷

Rank: 10Rank: 10

积分
231
发表于 2022-5-23 07:16:48 | 显示全部楼层
感谢楼主的分享

2

主题

527

帖子

950

积分

龙的传人

Rank: 13Rank: 13Rank: 13

积分
950
发表于 2022-5-23 07:27:19 | 显示全部楼层
请求第一季第二季后续发布

4

主题

495

帖子

2403

积分

升龙霸·VIP

Rank: 22Rank: 22Rank: 22Rank: 22

积分
2403

龙网VIP·银章

发表于 2022-5-23 08:36:59 | 显示全部楼层
谢谢航子分享

1

主题

54

帖子

248

积分

龙少爷

Rank: 10Rank: 10

积分
248
发表于 2022-5-23 08:39:57 | 显示全部楼层
感谢楼主的分享{:4_130:}{:4_130:}

0

主题

223

帖子

2230

积分

赤血神龙

Rank: 20Rank: 20Rank: 20Rank: 20

积分
2230

龙网爱心勋章

发表于 2022-5-23 09:57:31 | 显示全部楼层

感谢航子分享!

0

主题

976

帖子

3513

积分

赤血神龙

Rank: 20Rank: 20Rank: 20Rank: 20

积分
3513
发表于 2022-5-23 10:27:17 | 显示全部楼层
感謝航子的分享.
您需要登录后才可以回帖 登录 | 立即注册

本版积分规则

小黑屋|梦幻天堂·龙网

GMT+8, 2022-7-5 13:58 , Processed in 0.239824 second(s), 27 queries , Gzip On.

Powered by Discuz! X3.2

© 2001-2013 Comsenz Inc.

快速回复 返回顶部 返回列表