梦幻天堂·龙网

 找回密码
 立即注册
查看: 16790|回复: 102

[最新电影龙网转发] 【龙网转发】【美国2022最新动作冒险大片】【迷失之城】【WebDL-1080p.MKV】【中字】

[复制链接]

2746

主题

3万

帖子

7万

积分

九鼎龙王·坛主

偶系漂漂滴龙民

Rank: 46Rank: 46Rank: 46Rank: 46Rank: 46Rank: 46

积分
75482

航子大神勋章

发表于 2022-5-18 17:27:18 | 显示全部楼层 |阅读模式
海报





译  名 迷失之城/迷失D城/失落谜城(台)/失惊无神闯谜城(港)
片  名 The Lost City
年  代 2022
国  家 美国
类  别 动作/冒险/喜剧
语  言 英语
字  幕 中简/中繁/英文
评  分 6.3/10 from 38,510 users
链  接 https://www.imdb.com/title/tt13320622
文件大小 5.58 GB
片  长 112 Min
导  演 艾伦·尼 Aaron Nee
     亚当·尼 Adam Nee
主  演 桑德拉·布洛克 Sandra Bullock
     查宁·塔图姆 Channing Tatum
     丹尼尔·雷德克里夫 Daniel Radcliffe
     达明·乔伊·伦道夫 Da'Vine Joy Randolph
     布拉德·皮特 Brad Pitt
     奥斯卡·努内斯 Oscar Nunez
     帕蒂·哈里森 Patti Harrison
     杨伯文 Bowen Yang
     乔安·普林格尔 Joan Pringle
     赫克托·阿尼巴尔 Hector Anibal
     托马斯·福布斯·约翰逊 Thomas Forbes-Johnson

简介

  洛蕾塔·塞琪(桑德拉·布洛克 饰)是一位才华横溢但与世隔绝的作家。在她的畅销爱情冒险小说里,总会出现许多奇异的地方。而作为本书的封面模特,艾伦(查宁·塔图姆 饰)一生都在致力于展现书中英雄角色“达什”的个人魅力。在与艾伦一起宣传新书时,洛雷塔被一位古怪的亿万富翁(丹尼尔·雷德克里夫 饰)绑架。这位亿万富翁坚信,洛蕾塔的新书能带领他找到失落古城中的宝藏。与此同时,艾伦为了证明自己可以成为现实中的英雄,而不仅仅是洛蕾塔虚构的人物,决定前去营救她。这对极不对付的搭档需要共同努力,才能在险恶的丛林中生存下来,并在亿万富翁赶到前找到古老的宝藏。

Video
Format                         : AVC
Format/Info                    : Advanced Video Codec
Format profile                 : High @ L4
Format settings                : CABAC / 4 Ref Frames
Format settings, CABAC         : Yes
Format settings, Reference fra : 4 frames
Codec ID                       : V_MPEG4/ISO/AVC
Duration                       : 1 h 51 min
Bit rate mode                  : Constant
Bit rate                       : 6 486 kb/s
Nominal bit rate               : 10 000 kb/s
Width                          : 1 920 pixels
Height                         : 1 080 pixels
Display aspect ratio           : 16:9
Frame rate mode                : Constant
Frame rate                     : 23.976 (24000/1001) FPS
Color space                    : YUV
Chroma subsampling             : 4:2:0
Bit depth                      : 8 bits
Scan type                      : Progressive
Bits/(Pixel*Frame)             : 0.130
Stream size                    : 5.07 GiB (91%)
Color range                    : Limited
Color primaries                : BT.709
Transfer characteristics       : BT.709
Matrix coefficients            : BT.709

Audio
Format                         : E-AC-3
Format/Info                    : Enhanced AC-3
Commercial name                : Dolby Digital Plus
Codec ID                       : A_EAC3
Duration                       : 1 h 51 min
Bit rate mode                  : Constant
Bit rate                       : 640 kb/s
Channel(s)                     : 6 channels
Channel layout                 : L R C LFE Ls Rs
Sampling rate                  : 48.0 kHz
Frame rate                     : 31.250 FPS (1536 SPF)
Compression mode               : Lossy
Stream size                    : 512 MiB (9%)
Service kind                   : Complete Main

截图




BT种子下载
梦幻天堂·龙网(www.LWgod.org).迷失之城.失落谜城.失惊无神闯谜城.torrent (29.19 KB, 下载次数: 6878)

2746

主题

3万

帖子

7万

积分

九鼎龙王·坛主

偶系漂漂滴龙民

Rank: 46Rank: 46Rank: 46Rank: 46Rank: 46Rank: 46

积分
75482

航子大神勋章

 楼主| 发表于 2022-5-18 18:20:54 | 显示全部楼层
  1. 【龙网转发】【美国2022最新动作冒险大片】【迷失之城】【WebDL-1080p.MKV】【中字】
复制代码

  1. 海报

  2. [img]http://img.longwangbt.com/-10-/05.18/m/00.jpg[/img]

  3. [img]http://img.longwangbt.com/-10-/05.18/m/01.jpg[/img]

  4. 译  名 迷失之城/迷失D城/失落谜城(台)/失惊无神闯谜城(港)
  5. 片  名 The Lost City
  6. 年  代 2022
  7. 国  家 美国
  8. 类  别 动作/冒险/喜剧
  9. 语  言 英语
  10. 字  幕 中简/中繁/英文
  11. 评  分 6.3/10 from 38,510 users
  12. 链  接 [url=http://www.lwgod.org]https://www.imdb.com/title/tt13320622[/url]
  13. 文件大小 5.58 GB
  14. 片  长 112 Min
  15. 导  演 艾伦·尼 Aaron Nee
  16.      亚当·尼 Adam Nee
  17. 主  演 桑德拉·布洛克 Sandra Bullock
  18.      查宁·塔图姆 Channing Tatum
  19.      丹尼尔·雷德克里夫 Daniel Radcliffe
  20.      达明·乔伊·伦道夫 Da'Vine Joy Randolph
  21.      布拉德·皮特 Brad Pitt
  22.      奥斯卡·努内斯 Oscar Nunez
  23.      帕蒂·哈里森 Patti Harrison
  24.      杨伯文 Bowen Yang
  25.      乔安·普林格尔 Joan Pringle
  26.      赫克托·阿尼巴尔 Hector Anibal
  27.      托马斯·福布斯·约翰逊 Thomas Forbes-Johnson

  28. 简介

  29.   洛蕾塔·塞琪(桑德拉·布洛克 饰)是一位才华横溢但与世隔绝的作家。在她的畅销爱情冒险小说里,总会出现许多奇异的地方。而作为本书的封面模特,艾伦(查宁·塔图姆 饰)一生都在致力于展现书中英雄角色“达什”的个人魅力。在与艾伦一起宣传新书时,洛雷塔被一位古怪的亿万富翁(丹尼尔·雷德克里夫 饰)绑架。这位亿万富翁坚信,洛蕾塔的新书能带领他找到失落古城中的宝藏。与此同时,艾伦为了证明自己可以成为现实中的英雄,而不仅仅是洛蕾塔虚构的人物,决定前去营救她。这对极不对付的搭档需要共同努力,才能在险恶的丛林中生存下来,并在亿万富翁赶到前找到古老的宝藏。

  30. [quote][size=2]Video
  31. Format                         : AVC
  32. Format/Info                    : Advanced Video Codec
  33. Format profile                 : High @ L4
  34. Format settings                : CABAC / 4 Ref Frames
  35. Format settings, CABAC         : Yes
  36. Format settings, Reference fra : 4 frames
  37. Codec ID                       : V_MPEG4/ISO/AVC
  38. Duration                       : 1 h 51 min
  39. Bit rate mode                  : Constant
  40. Bit rate                       : 6 486 kb/s
  41. Nominal bit rate               : 10 000 kb/s
  42. Width                          : 1 920 pixels
  43. Height                         : 1 080 pixels
  44. Display aspect ratio           : 16:9
  45. Frame rate mode                : Constant
  46. Frame rate                     : 23.976 (24000/1001) FPS
  47. Color space                    : YUV
  48. Chroma subsampling             : 4:2:0
  49. Bit depth                      : 8 bits
  50. Scan type                      : Progressive
  51. Bits/(Pixel*Frame)             : 0.130
  52. Stream size                    : 5.07 GiB (91%)
  53. Color range                    : Limited
  54. Color primaries                : BT.709
  55. Transfer characteristics       : BT.709
  56. Matrix coefficients            : BT.709

  57. Audio
  58. Format                         : E-AC-3
  59. Format/Info                    : Enhanced AC-3
  60. Commercial name                : Dolby Digital Plus
  61. Codec ID                       : A_EAC3
  62. Duration                       : 1 h 51 min
  63. Bit rate mode                  : Constant
  64. Bit rate                       : 640 kb/s
  65. Channel(s)                     : 6 channels
  66. Channel layout                 : L R C LFE Ls Rs
  67. Sampling rate                  : 48.0 kHz
  68. Frame rate                     : 31.250 FPS (1536 SPF)
  69. Compression mode               : Lossy
  70. Stream size                    : 512 MiB (9%)
  71. Service kind                   : Complete Main[/size][/quote]
  72. 截图

  73. [img]http://img.longwangbt.com/-10-/05.18/m/02.jpg[/img]
复制代码

0

主题

878

帖子

2005

积分

赤血神龙

Rank: 20Rank: 20Rank: 20Rank: 20

积分
2005

龙网爱心勋章

发表于 2022-5-18 18:30:43 | 显示全部楼层
航子辛苦…….

0

主题

412

帖子

760

积分

龙的传人

Rank: 13Rank: 13Rank: 13

积分
760
发表于 2022-5-18 18:36:36 | 显示全部楼层
THANKS FOR SHARING!

1

主题

597

帖子

1688

积分

神龙

Rank: 15Rank: 15Rank: 15

积分
1688
发表于 2022-5-18 18:53:48 | 显示全部楼层
感谢分享好片

1

主题

2478

帖子

3531

积分

赤血神龙

Rank: 20Rank: 20Rank: 20Rank: 20

积分
3531
发表于 2022-5-18 19:53:29 | 显示全部楼层
感谢楼主分享!!!!

1

主题

230

帖子

637

积分

龙的传人

Rank: 13Rank: 13Rank: 13

积分
637
发表于 2022-5-18 20:17:21 | 显示全部楼层

感谢分享好片{:4_130:}{:4_130:}
ABR告诉我:没有行动的远见是白日梦,没有远见的行动是恶梦。

1

主题

1万

帖子

2万

积分

神界龙王

Rank: 30Rank: 30Rank: 30Rank: 30

积分
20937

龙网爱心勋章

发表于 2022-5-18 21:11:56 | 显示全部楼层

支持航子。。
笑看红尘

1

主题

396

帖子

1015

积分

神龙

Rank: 15Rank: 15Rank: 15

积分
1015
发表于 2022-5-18 21:48:31 | 显示全部楼层
谢谢分享,等BluRay版的?

0

主题

203

帖子

2547

积分

赤血神龙

Rank: 20Rank: 20Rank: 20Rank: 20

积分
2547
发表于 2022-5-18 22:50:20 | 显示全部楼层
楼主辛苦,多谢分享。

0

主题

33

帖子

388

积分

龙少爷

Rank: 10Rank: 10

积分
388
发表于 2022-5-18 22:54:47 | 显示全部楼层
谢谢航子分享

0

主题

7114

帖子

7335

积分

霸王龙·贵宾

狱血黑龙

Rank: 18Rank: 18

积分
7335
发表于 2022-5-18 22:57:19 | 显示全部楼层
感谢航子的好片分享,支持支持
当你不再拥有的时候,你唯一可以做的,就是令自己不要忘记!

0

主题

459

帖子

627

积分

龙的传人

Rank: 13Rank: 13Rank: 13

积分
627
发表于 2022-5-18 23:11:48 | 显示全部楼层
感谢航子分享!

1

主题

1355

帖子

3678

积分

赤血神龙

Rank: 20Rank: 20Rank: 20Rank: 20

积分
3678
QQ
发表于 2022-5-18 23:31:33 | 显示全部楼层
tks for share............

2

主题

967

帖子

2042

积分

升龙霸·VIP

Rank: 22Rank: 22Rank: 22Rank: 22

积分
2042

龙网VIP·银星龙网VIP·银牌

发表于 2022-5-19 02:10:35 | 显示全部楼层
航子辛苦
您需要登录后才可以回帖 登录 | 立即注册

本版积分规则

小黑屋|梦幻天堂·龙网

GMT+8, 2022-7-5 13:50 , Processed in 0.271561 second(s), 29 queries , Gzip On.

Powered by Discuz! X3.2

© 2001-2013 Comsenz Inc.

快速回复 返回顶部 返回列表