梦幻天堂·龙网

 找回密码
 立即注册
查看: 16431|回复: 122

[最新电影龙网转发] 【龙网转发】【2022万众期待】【神奇动物:邓布利多之谜】【WebDL-1080p.MKV】【中字】

  [复制链接]

2746

主题

3万

帖子

7万

积分

九鼎龙王·坛主

偶系漂漂滴龙民

Rank: 46Rank: 46Rank: 46Rank: 46Rank: 46Rank: 46

积分
75482

航子大神勋章

发表于 2022-5-15 17:08:48 | 显示全部楼层 |阅读模式
此版带有韩文硬字幕,无法消除,不喜欢的兄弟请继续等待!

海报





译  名 神奇动物:邓布利多之谜/神奇动物在哪里3:邓布利多之谜/神奇生物在哪里3/怪兽与邓不利多的秘密(港/台)
片  名 Fantastic Beasts: The Secrets of Dumbledore
年  代 2022
国  家 英国/美国
类  别 动作/奇幻/冒险
语  言 英语/德语
字  幕 中简/中繁/英文
评  分 6.4/10 from 55,041 users
链  接 https://www.imdb.com/title/tt4123432
文件大小 8.17 GB
片  长 142 Min
导  演 大卫·叶茨 David Yates
主  演 埃迪·雷德梅恩 Eddie Redmayne
     裘德·洛 Jude Law
     麦斯·米科尔森 Mads Mikkelsen
     丹·福勒 Dan Fogler
     艾莉森·萨多尔 Alison Sudol
     凯瑟琳·沃特斯顿 Katherine Waterston
     埃兹拉·米勒 Ezra Miller
     卡勒姆·特纳 Callum Turner
     杰西卡·威廉姆斯 Jessica Williams
     理查德·柯伊尔 Richard Coyle
     波佩·科比-特曲 Poppy Corby-Tuech

简介

  阿不思·邓布利多教授(裘德·洛 饰)意识到强大的黑巫师盖勒特·格林德沃(麦斯·米科尔森 饰)正试图夺取魔法世界的控制权。邓布利多了解仅凭他一人之力,将无法阻止格林德沃,于是他委托魔法动物学家纽特·斯卡曼德(埃迪·雷德梅恩 饰)带领一支精良的团队——成员包括男巫、女巫及一位勇敢的麻瓜面包师,来共同执行这项危险任务。一路上他们会遇到各式各样的神奇动物,既有老朋友,也有前所未见的神秘生物;同时他们也随时会与格林德沃不断壮大的追随者发生冲突。这次行动的风险是如此之高……邓布利多还能袖手旁观多久?

Video
Format                         : AVC
Format/Info                    : Advanced Video Codec
Format profile                 : Main @ L4
Format settings                : CABAC / 2 Ref Frames
Format settings, CABAC         : Yes
Format settings, Reference fra : 2 frames
Format settings, GOP           : M=1, N=30
Codec ID                       : V_MPEG4/ISO/AVC
Duration                       : 2 h 22 min
Bit rate mode                  : Constant
Bit rate                       : 8 000 kb/s
Width                          : 1 920 pixels
Height                         : 1 080 pixels
Display aspect ratio           : 16:9
Frame rate mode                : Constant
Frame rate                     : 23.976 (24000/1001) FPS
Color space                    : YUV
Chroma subsampling             : 4:2:0
Bit depth                      : 8 bits
Scan type                      : Progressive
Bits/(Pixel*Frame)             : 0.161
Stream size                    : 7.97 GiB (97%)

Audio
Format                         : AAC LC SBR
Format/Info                    : Advanced Audio Codec Low Complexity with Spectral Band Replication
Commercial name                : HE-AAC
Format settings                : Implicit
Codec ID                       : A_AAC-2
Duration                       : 2 h 22 min
Bit rate                       : 192 kb/s
Channel(s)                     : 6 channels
Channel layout                 : C L R Ls Rs LFE
Sampling rate                  : 48.0 kHz
Frame rate                     : 23.438 FPS (2048 SPF)
Compression mode               : Lossy
Stream size                    : 196 MiB (2%)

截图




BT种子下载
梦幻天堂·龙网(www.LWgod.org).神奇动物:邓布利多之谜.torrent (42.15 KB, 下载次数: 8166)

2746

主题

3万

帖子

7万

积分

九鼎龙王·坛主

偶系漂漂滴龙民

Rank: 46Rank: 46Rank: 46Rank: 46Rank: 46Rank: 46

积分
75482

航子大神勋章

 楼主| 发表于 2022-5-15 17:28:52 | 显示全部楼层
  1. 【龙网转发】【2022万众期待】【神奇动物:邓布利多之谜】【WebDL-1080p.MKV】【中字】
复制代码

  1. [color=blue][size=5]此版带有韩文硬字幕,无法消除,不喜欢的兄弟请继续等待![/size][/color]

  2. 海报

  3. [img]http://img.longwangbt.com/-10-/05.15/s/00.jpg[/img]

  4. [img]http://img.longwangbt.com/-10-/05.15/s/01.jpg[/img]

  5. 译  名 神奇动物:邓布利多之谜/神奇动物在哪里3:邓布利多之谜/神奇生物在哪里3/怪兽与邓不利多的秘密(港/台)
  6. 片  名 Fantastic Beasts: The Secrets of Dumbledore
  7. 年  代 2022
  8. 国  家 英国/美国
  9. 类  别 动作/奇幻/冒险
  10. 语  言 英语/德语
  11. 字  幕 中简/中繁/英文
  12. 评  分 6.4/10 from 55,041 users
  13. 链  接 [url=http://www.lwgod.org]https://www.imdb.com/title/tt4123432[/url]
  14. 文件大小 8.17 GB
  15. 片  长 142 Min
  16. 导  演 大卫·叶茨 David Yates
  17. 主  演 埃迪·雷德梅恩 Eddie Redmayne
  18.      裘德·洛 Jude Law
  19.      麦斯·米科尔森 Mads Mikkelsen
  20.      丹·福勒 Dan Fogler
  21.      艾莉森·萨多尔 Alison Sudol
  22.      凯瑟琳·沃特斯顿 Katherine Waterston
  23.      埃兹拉·米勒 Ezra Miller
  24.      卡勒姆·特纳 Callum Turner
  25.      杰西卡·威廉姆斯 Jessica Williams
  26.      理查德·柯伊尔 Richard Coyle
  27.      波佩·科比-特曲 Poppy Corby-Tuech

  28. 简介

  29.   阿不思·邓布利多教授(裘德·洛 饰)意识到强大的黑巫师盖勒特·格林德沃(麦斯·米科尔森 饰)正试图夺取魔法世界的控制权。邓布利多了解仅凭他一人之力,将无法阻止格林德沃,于是他委托魔法动物学家纽特·斯卡曼德(埃迪·雷德梅恩 饰)带领一支精良的团队——成员包括男巫、女巫及一位勇敢的麻瓜面包师,来共同执行这项危险任务。一路上他们会遇到各式各样的神奇动物,既有老朋友,也有前所未见的神秘生物;同时他们也随时会与格林德沃不断壮大的追随者发生冲突。这次行动的风险是如此之高……邓布利多还能袖手旁观多久?

  30. [quote][size=2]Video
  31. Format                         : AVC
  32. Format/Info                    : Advanced Video Codec
  33. Format profile                 : Main @ L4
  34. Format settings                : CABAC / 2 Ref Frames
  35. Format settings, CABAC         : Yes
  36. Format settings, Reference fra : 2 frames
  37. Format settings, GOP           : M=1, N=30
  38. Codec ID                       : V_MPEG4/ISO/AVC
  39. Duration                       : 2 h 22 min
  40. Bit rate mode                  : Constant
  41. Bit rate                       : 8 000 kb/s
  42. Width                          : 1 920 pixels
  43. Height                         : 1 080 pixels
  44. Display aspect ratio           : 16:9
  45. Frame rate mode                : Constant
  46. Frame rate                     : 23.976 (24000/1001) FPS
  47. Color space                    : YUV
  48. Chroma subsampling             : 4:2:0
  49. Bit depth                      : 8 bits
  50. Scan type                      : Progressive
  51. Bits/(Pixel*Frame)             : 0.161
  52. Stream size                    : 7.97 GiB (97%)

  53. Audio
  54. Format                         : AAC LC SBR
  55. Format/Info                    : Advanced Audio Codec Low Complexity with Spectral Band Replication
  56. Commercial name                : HE-AAC
  57. Format settings                : Implicit
  58. Codec ID                       : A_AAC-2
  59. Duration                       : 2 h 22 min
  60. Bit rate                       : 192 kb/s
  61. Channel(s)                     : 6 channels
  62. Channel layout                 : C L R Ls Rs LFE
  63. Sampling rate                  : 48.0 kHz
  64. Frame rate                     : 23.438 FPS (2048 SPF)
  65. Compression mode               : Lossy
  66. Stream size                    : 196 MiB (2%)[/size][/quote]
  67. 截图

  68. [img]http://img.longwangbt.com/-10-/05.15/s/02.jpg[/img]
复制代码

0

主题

2470

帖子

4355

积分

赤血神龙

Rank: 20Rank: 20Rank: 20Rank: 20

积分
4355
发表于 2022-5-15 17:39:37 | 显示全部楼层
感谢楼主分享!!!

1

主题

597

帖子

1688

积分

神龙

Rank: 15Rank: 15Rank: 15

积分
1688
发表于 2022-5-15 18:05:22 | 显示全部楼层
等1080的再看

1

主题

1355

帖子

3678

积分

赤血神龙

Rank: 20Rank: 20Rank: 20Rank: 20

积分
3678
QQ
发表于 2022-5-15 18:53:39 | 显示全部楼层
先睹為快。。。。。。。。。。

0

主题

203

帖子

2547

积分

赤血神龙

Rank: 20Rank: 20Rank: 20Rank: 20

积分
2547
发表于 2022-5-15 19:23:44 | 显示全部楼层
楼主辛苦,多谢分享。

0

主题

582

帖子

1161

积分

神龙

Rank: 15Rank: 15Rank: 15

积分
1161
发表于 2022-5-15 20:06:33 | 显示全部楼层
多谢分享!

0

主题

5877

帖子

6345

积分

海龙王

Rank: 25Rank: 25Rank: 25Rank: 25Rank: 25

积分
6345
发表于 2022-5-15 20:25:18 | 显示全部楼层
感谢楼主分享!!!

1

主题

396

帖子

1015

积分

神龙

Rank: 15Rank: 15Rank: 15

积分
1015
发表于 2022-5-15 21:12:16 | 显示全部楼层
谢谢分享,我还是等1080P的吧.

0

主题

459

帖子

627

积分

龙的传人

Rank: 13Rank: 13Rank: 13

积分
627
发表于 2022-5-15 21:50:40 | 显示全部楼层
感谢航子分享!

0

主题

3961

帖子

5561

积分

海龙王

Rank: 25Rank: 25Rank: 25Rank: 25Rank: 25

积分
5561
发表于 2022-5-15 21:56:05 | 显示全部楼层
感谢航子的分享

0

主题

393

帖子

720

积分

龙的传人

Rank: 13Rank: 13Rank: 13

积分
720
发表于 2022-5-15 22:21:53 | 显示全部楼层
感谢航子的分享

1

主题

1383

帖子

2240

积分

赤血神龙

Rank: 20Rank: 20Rank: 20Rank: 20

积分
2240
发表于 2022-5-16 00:40:38 | 显示全部楼层
感谢航子分享!

0

主题

2183

帖子

4055

积分

赤血神龙

Rank: 20Rank: 20Rank: 20Rank: 20

积分
4055
QQ
发表于 2022-5-16 05:59:22 | 显示全部楼层
感谢航子分享
一切终会过去

2

主题

100

帖子

208

积分

龙少爷

Rank: 10Rank: 10

积分
208
发表于 2022-5-16 07:41:13 | 显示全部楼层
谢谢楼主分享!

您需要登录后才可以回帖 登录 | 立即注册

本版积分规则

小黑屋|梦幻天堂·龙网

GMT+8, 2022-7-5 14:16 , Processed in 0.266215 second(s), 29 queries , Gzip On.

Powered by Discuz! X3.2

© 2001-2013 Comsenz Inc.

快速回复 返回顶部 返回列表