梦幻天堂·龙网

 找回密码
 立即注册
查看: 13484|回复: 114

[最新剧集龙网转发] 【龙网转发】【中2022超高分必看剧集】【人世间.全58集】【WebDL-1080p.MKV】【国语】

  [复制链接]

2746

主题

3万

帖子

7万

积分

九鼎龙王·坛主

偶系漂漂滴龙民

Rank: 46Rank: 46Rank: 46Rank: 46Rank: 46Rank: 46

积分
75482

航子大神勋章

发表于 2022-5-9 17:08:46 | 显示全部楼层 |阅读模式
海报





译  名 人世间
片  名 A Lifelong Journey
年  代 2022
国  家 中国
类  别 剧情
语  言 汉语普通话
字  幕 中文硬字幕
评  分 8.1/10 from 171,871 users
链  接 https://movie.douban.com/subject/35207856
文件大小 31.9 GB
单集片长 45 Min
集  数 58
导  演 李路 Lu Li
主  演 雷佳音 Jiayin Lei
     辛柏青 Baiqing Xin
     宋佳 Jia Song
     殷桃 Tao Yin
     丁勇岱 Yongdai Ding
     萨日娜 Rina Sa
     成泰燊 Taishen Cheng
     隋俊波 Junbo Sui
     张瑞涵 Ruihan Zhang
     宋楚炎 Chuyan Song
     王大奇 Daqi Wang
     王阳 Wayne Wang
     李建义 Jianyi Li
     宋春丽 Chunli Song
     张凯丽 Kaili Zhang

简介

  上世纪七十年代末,北方某省会城市“光字片”区居住着周姓一家,父亲周志刚在西南参加“大三线”建设,长子周秉义响应国家号召成为第一批下乡知青,长女周蓉追随诗人丈夫远赴贵州乡村,周家只留下小弟周秉昆与周母相依为命。在五十年的岁月里周家人的命运与时代变迁交织在一起,周秉义大学毕业后从政,在大刀阔斧的改革中经历仕途沉浮;周蓉获得博士学位后留校任教,却情路坎坷,阴差阳错旅居法国十二年。周秉昆与美丽又不幸的女子郑娟相濡以沫,通过自己的努力从一名工人成长为文艺工作者,经历下岗的阵痛和“下海”的挑战,在平凡的岁月里扶持邻里亲友共同前进。一家人在完成各自人生使命的同时,也书写了一部当代中国百姓的生活史诗。

Video
Format                         : AVC
Format/Info                    : Advanced Video Codec
Format profile                 : High @ L4
Format settings                : CABAC / 3 Ref Frames
Format settings, CABAC         : Yes
Format settings, Reference fra : 3 frames
Codec ID                       : V_MPEG4/ISO/AVC
Duration                       : 45 min 35 s
Bit rate                       : 1 908 kb/s
Width                          : 1 920 pixels
Height                         : 1 080 pixels
Display aspect ratio           : 16:9
Frame rate mode                : Constant
Frame rate                     : 25.000 FPS
Color space                    : YUV
Chroma subsampling             : 4:2:0
Bit depth                      : 8 bits
Scan type                      : Progressive
Bits/(Pixel*Frame)             : 0.037
Stream size                    : 622 MiB (91%)
Color range                    : Limited
Color primaries                : BT.709
Transfer characteristics       : BT.709
Matrix coefficients            : BT.709

Audio
Format                         : AAC LC
Format/Info                    : Advanced Audio Codec Low Complexity
Codec ID                       : A_AAC-2
Duration                       : 45 min 35 s
Bit rate                       : 192 kb/s
Channel(s)                     : 2 channels
Channel layout                 : L R
Sampling rate                  : 44.1 kHz
Frame rate                     : 43.066 FPS (1024 SPF)
Compression mode               : Lossy
Stream size                    : 61.8 MiB (9%)

截图




BT种子下载
梦幻天堂·龙网(www.LWgod.org).人世间.中国2022高分必看热剧.全58集.torrent (167.88 KB, 下载次数: 7129)

2746

主题

3万

帖子

7万

积分

九鼎龙王·坛主

偶系漂漂滴龙民

Rank: 46Rank: 46Rank: 46Rank: 46Rank: 46Rank: 46

积分
75482

航子大神勋章

 楼主| 发表于 2022-5-9 17:24:46 | 显示全部楼层
  1. 【龙网转发】【中2022超高分必看剧集】【人世间.全58集】【WebDL-1080p.MKV】【国语】
复制代码

  1. 海报

  2. [img]http://img.longwangbt.com/-10-/05.09/r/00.jpg[/img]

  3. [img]http://img.longwangbt.com/-10-/05.09/r/01.jpg[/img]

  4. 译  名 人世间
  5. 片  名 A Lifelong Journey
  6. 年  代 2022
  7. 国  家 中国
  8. 类  别 剧情
  9. 语  言 汉语普通话
  10. 字  幕 中文硬字幕
  11. 评  分 [color=red]8.1/10 from 171,871 users[/color]
  12. 链  接 [url=http://www.lwgod.org]https://movie.douban.com/subject/35207856[/url]
  13. 文件大小 31.9 GB
  14. 单集片长 45 Min
  15. 集  数 58
  16. 导  演 李路 Lu Li
  17. 主  演 雷佳音 Jiayin Lei
  18.      辛柏青 Baiqing Xin
  19.      宋佳 Jia Song
  20.      殷桃 Tao Yin
  21.      丁勇岱 Yongdai Ding
  22.      萨日娜 Rina Sa
  23.      成泰燊 Taishen Cheng
  24.      隋俊波 Junbo Sui
  25.      张瑞涵 Ruihan Zhang
  26.      宋楚炎 Chuyan Song
  27.      王大奇 Daqi Wang
  28.      王阳 Wayne Wang
  29.      李建义 Jianyi Li
  30.      宋春丽 Chunli Song
  31.      张凯丽 Kaili Zhang

  32. 简介

  33.   上世纪七十年代末,北方某省会城市“光字片”区居住着周姓一家,父亲周志刚在西南参加“大三线”建设,长子周秉义响应国家号召成为第一批下乡知青,长女周蓉追随诗人丈夫远赴贵州乡村,周家只留下小弟周秉昆与周母相依为命。在五十年的岁月里周家人的命运与时代变迁交织在一起,周秉义大学毕业后从政,在大刀阔斧的改革中经历仕途沉浮;周蓉获得博士学位后留校任教,却情路坎坷,阴差阳错旅居法国十二年。周秉昆与美丽又不幸的女子郑娟相濡以沫,通过自己的努力从一名工人成长为文艺工作者,经历下岗的阵痛和“下海”的挑战,在平凡的岁月里扶持邻里亲友共同前进。一家人在完成各自人生使命的同时,也书写了一部当代中国百姓的生活史诗。

  34. [quote][size=2]Video
  35. Format                         : AVC
  36. Format/Info                    : Advanced Video Codec
  37. Format profile                 : High @ L4
  38. Format settings                : CABAC / 3 Ref Frames
  39. Format settings, CABAC         : Yes
  40. Format settings, Reference fra : 3 frames
  41. Codec ID                       : V_MPEG4/ISO/AVC
  42. Duration                       : 45 min 35 s
  43. Bit rate                       : 1 908 kb/s
  44. Width                          : 1 920 pixels
  45. Height                         : 1 080 pixels
  46. Display aspect ratio           : 16:9
  47. Frame rate mode                : Constant
  48. Frame rate                     : 25.000 FPS
  49. Color space                    : YUV
  50. Chroma subsampling             : 4:2:0
  51. Bit depth                      : 8 bits
  52. Scan type                      : Progressive
  53. Bits/(Pixel*Frame)             : 0.037
  54. Stream size                    : 622 MiB (91%)
  55. Color range                    : Limited
  56. Color primaries                : BT.709
  57. Transfer characteristics       : BT.709
  58. Matrix coefficients            : BT.709

  59. Audio
  60. Format                         : AAC LC
  61. Format/Info                    : Advanced Audio Codec Low Complexity
  62. Codec ID                       : A_AAC-2
  63. Duration                       : 45 min 35 s
  64. Bit rate                       : 192 kb/s
  65. Channel(s)                     : 2 channels
  66. Channel layout                 : L R
  67. Sampling rate                  : 44.1 kHz
  68. Frame rate                     : 43.066 FPS (1024 SPF)
  69. Compression mode               : Lossy
  70. Stream size                    : 61.8 MiB (9%)[/size][/quote]
  71. 截图

  72. [img]http://img.longwangbt.com/-10-/05.09/r/02.jpg[/img]
复制代码

0

主题

109

帖子

270

积分

龙少爷

Rank: 10Rank: 10

积分
270
发表于 2022-5-9 18:19:56 | 显示全部楼层

谢谢楼主分享精采资源
男人不坏,女人不爱

2

主题

564

帖子

1898

积分

升龙霸·VIP

Rank: 22Rank: 22Rank: 22Rank: 22

积分
1898

赞助会员 LV2龙网VIP·银星龙网VIP·银牌龙网VIP·银章

发表于 2022-5-9 18:47:29 | 显示全部楼层
支持航子,不局限于电影

0

主题

322

帖子

581

积分

龙的传人

Rank: 13Rank: 13Rank: 13

积分
581
发表于 2022-5-9 18:49:09 | 显示全部楼层
弯弯2022版头七有了吗?

1

主题

597

帖子

1688

积分

神龙

Rank: 15Rank: 15Rank: 15

积分
1688
发表于 2022-5-9 19:14:11 | 显示全部楼层
国产连续剧不错

1

主题

2478

帖子

3531

积分

赤血神龙

Rank: 20Rank: 20Rank: 20Rank: 20

积分
3531
发表于 2022-5-9 19:32:45 | 显示全部楼层
感谢楼主分享!!!!!

2

主题

967

帖子

2042

积分

升龙霸·VIP

Rank: 22Rank: 22Rank: 22Rank: 22

积分
2042

龙网VIP·银星龙网VIP·银牌

发表于 2022-5-9 19:42:16 | 显示全部楼层
感谢航子分享

0

主题

8217

帖子

7948

积分

海龙王

Rank: 25Rank: 25Rank: 25Rank: 25Rank: 25

积分
7948
发表于 2022-5-9 20:07:33 | 显示全部楼层
看过了,说真的,剧情没有这么的好看,并没有网上吹得这么红这么好,与一些真正好看的经典的连续剧差距大了,就比如《闯关东》里就有好这个主演在这部剧中出演,但是《闯关东》看了一遍又一遍都不会厌,但是这部剧看了第一次也就算了,但是那些主演们的演技真的没得说的,特别是殷桃,演什么像什么......
感谢航子分享!

0

主题

153

帖子

253

积分

龙少爷

Rank: 10Rank: 10

积分
253
发表于 2022-5-9 20:11:32 | 显示全部楼层
时代大剧,值得鉴赏

0

主题

324

帖子

1939

积分

神龙

Rank: 15Rank: 15Rank: 15

积分
1939
发表于 2022-5-9 20:37:21 | 显示全部楼层
据说不错,支持了看看
笑看庭前花开花落

0

主题

86

帖子

2478

积分

赤血神龙

Rank: 20Rank: 20Rank: 20Rank: 20

积分
2478

龙网爱心勋章

发表于 2022-5-9 21:33:49 | 显示全部楼层
感谢航子分享

0

主题

459

帖子

627

积分

龙的传人

Rank: 13Rank: 13Rank: 13

积分
627
发表于 2022-5-9 21:46:02 | 显示全部楼层
感谢航子分享!

2

主题

1566

帖子

2783

积分

升龙霸·VIP

Rank: 22Rank: 22Rank: 22Rank: 22

积分
2783

龙网VIP·银牌

发表于 2022-5-9 22:33:21 | 显示全部楼层
谢楼主分享

1

主题

1355

帖子

3678

积分

赤血神龙

Rank: 20Rank: 20Rank: 20Rank: 20

积分
3678
QQ
发表于 2022-5-9 23:14:01 | 显示全部楼层
tks for share................
您需要登录后才可以回帖 登录 | 立即注册

本版积分规则

小黑屋|梦幻天堂·龙网

GMT+8, 2022-7-5 13:51 , Processed in 0.258447 second(s), 29 queries , Gzip On.

Powered by Discuz! X3.2

© 2001-2013 Comsenz Inc.

快速回复 返回顶部 返回列表