梦幻天堂·龙网

 找回密码
 立即注册
查看: 14068|回复: 112

[最新电影龙网转发] 【龙网转发】【中国2022热门爆笑喜剧】【东北告别天团】【WebDL-2160p.MKV】【国语】

  [复制链接]

2746

主题

3万

帖子

7万

积分

九鼎龙王·坛主

偶系漂漂滴龙民

Rank: 46Rank: 46Rank: 46Rank: 46Rank: 46Rank: 46

积分
75482

航子大神勋章

发表于 2022-5-5 19:43:49 | 显示全部楼层 |阅读模式
海报





译  名 东北告别天团
片  名 Goodbye
年  代 2022
国  家 中国
类  别 喜剧/剧情
语  言 汉语普通话
字  幕 中文硬字幕
评  分 5.9/10 from 11,865 users
链  接 https://movie.douban.com/subject/35871767
文件大小 1.34 GB
片  长 95 Min
导  演 崔志佳 Zhijia Cui
主  演 崔志佳 Zhijia Cui
     宋晓峰 Xiaofeng Song
     张琪 Qi Zhang
     刁彪 Biao Diao
     李昆鹰 Kunying Li
     于洋 Yang Yu
     孙越 Yue Sun
     梁龙 Long Liang
     赵海燕 Haiyan Zhao
     张子栋 Zi-Dong Zhang
     韩彦博 Yanbo Han

简介

  范大明白(崔志佳 饰)在东北从事着白事行业,与众不同的是,范大明白愿意接纳刑满释放的人,为他们提供工作机会。这一天,一名叫做牛硬朗(宋晓峰 饰)的男人来到店里,抛出了豪华大单——三百万的葬礼,范大明白及团队惊讶不已……在办葬礼的过程中,范大明白和牛硬朗才发现,原来二人之间的渊源不止如此……

Video
Format                         : HEVC
Format/Info                    : High Efficiency Video Coding
Format profile                 : Main @ L5 @ Main
Codec ID                       : V_MPEGH/ISO/HEVC
Duration                       : 1 h 35 min
Bit rate                       : 1 897 kb/s
Width                          : 3 840 pixels
Height                         : 1 626 pixels
Display aspect ratio           : 2.35:1
Frame rate mode                : Constant
Frame rate                     : 24.000 FPS
Color space                    : YUV
Chroma subsampling             : 4:2:0
Bit depth                      : 8 bits
Bits/(Pixel*Frame)             : 0.013
Stream size                    : 1.26 GiB (94%)
Color range                    : Limited
Color primaries                : BT.709
Transfer characteristics       : BT.709
Matrix coefficients            : BT.709

Audio
Format                         : AAC LC
Format/Info                    : Advanced Audio Codec Low Complexity
Codec ID                       : A_AAC-2
Duration                       : 1 h 35 min
Bit rate                       : 125 kb/s
Channel(s)                     : 2 channels
Channel layout                 : L R
Sampling rate                  : 48.0 kHz
Frame rate                     : 46.875 FPS (1024 SPF)
Compression mode               : Lossy
Stream size                    : 85.2 MiB (6%)

截图




BT种子下载
梦幻天堂·龙网(www.LWgod.org).东北告别天团.torrent (28.1 KB, 下载次数: 5629)

2746

主题

3万

帖子

7万

积分

九鼎龙王·坛主

偶系漂漂滴龙民

Rank: 46Rank: 46Rank: 46Rank: 46Rank: 46Rank: 46

积分
75482

航子大神勋章

 楼主| 发表于 2022-5-5 19:54:17 | 显示全部楼层
  1. 【龙网转发】【中国2022热门爆笑喜剧】【东北告别天团】【WebDL-2160p.MKV】【国语】
复制代码

  1. 海报

  2. [img]http://img.longwangbt.com/-10-/05.05/d/00.jpg[/img]

  3. [img]http://img.longwangbt.com/-10-/05.05/d/01.jpg[/img]

  4. 译  名 东北告别天团
  5. 片  名 Goodbye
  6. 年  代 2022
  7. 国  家 中国
  8. 类  别 喜剧/剧情
  9. 语  言 汉语普通话
  10. 字  幕 中文硬字幕
  11. 评  分 5.9/10 from 11,865 users
  12. 链  接 [url=http://www.lwgod.org]https://movie.douban.com/subject/35871767[/url]
  13. 文件大小 1.34 GB
  14. 片  长 95 Min
  15. 导  演 崔志佳 Zhijia Cui
  16. 主  演 崔志佳 Zhijia Cui
  17.      宋晓峰 Xiaofeng Song
  18.      张琪 Qi Zhang
  19.      刁彪 Biao Diao
  20.      李昆鹰 Kunying Li
  21.      于洋 Yang Yu
  22.      孙越 Yue Sun
  23.      梁龙 Long Liang
  24.      赵海燕 Haiyan Zhao
  25.      张子栋 Zi-Dong Zhang
  26.      韩彦博 Yanbo Han

  27. 简介

  28.   范大明白(崔志佳 饰)在东北从事着白事行业,与众不同的是,范大明白愿意接纳刑满释放的人,为他们提供工作机会。这一天,一名叫做牛硬朗(宋晓峰 饰)的男人来到店里,抛出了豪华大单——三百万的葬礼,范大明白及团队惊讶不已……在办葬礼的过程中,范大明白和牛硬朗才发现,原来二人之间的渊源不止如此……

  29. [quote][size=2]Video
  30. Format                         : HEVC
  31. Format/Info                    : High Efficiency Video Coding
  32. Format profile                 : Main @ L5 @ Main
  33. Codec ID                       : V_MPEGH/ISO/HEVC
  34. Duration                       : 1 h 35 min
  35. Bit rate                       : 1 897 kb/s
  36. Width                          : 3 840 pixels
  37. Height                         : 1 626 pixels
  38. Display aspect ratio           : 2.35:1
  39. Frame rate mode                : Constant
  40. Frame rate                     : 24.000 FPS
  41. Color space                    : YUV
  42. Chroma subsampling             : 4:2:0
  43. Bit depth                      : 8 bits
  44. Bits/(Pixel*Frame)             : 0.013
  45. Stream size                    : 1.26 GiB (94%)
  46. Color range                    : Limited
  47. Color primaries                : BT.709
  48. Transfer characteristics       : BT.709
  49. Matrix coefficients            : BT.709

  50. Audio
  51. Format                         : AAC LC
  52. Format/Info                    : Advanced Audio Codec Low Complexity
  53. Codec ID                       : A_AAC-2
  54. Duration                       : 1 h 35 min
  55. Bit rate                       : 125 kb/s
  56. Channel(s)                     : 2 channels
  57. Channel layout                 : L R
  58. Sampling rate                  : 48.0 kHz
  59. Frame rate                     : 46.875 FPS (1024 SPF)
  60. Compression mode               : Lossy
  61. Stream size                    : 85.2 MiB (6%)[/size][/quote]
  62. 截图

  63. [img]http://img.longwangbt.com/-10-/05.05/d/02.jpg[/img]
复制代码

0

主题

350

帖子

1695

积分

神龙

Rank: 15Rank: 15Rank: 15

积分
1695
发表于 2022-5-5 20:10:35 | 显示全部楼层
谢谢楼主分享

0

主题

757

帖子

1848

积分

神龙

Rank: 15Rank: 15Rank: 15

积分
1848
发表于 2022-5-5 20:21:42 | 显示全部楼层
谢谢楼主分享

0

主题

795

帖子

1188

积分

升龙霸·VIP

Rank: 22Rank: 22Rank: 22Rank: 22

积分
1188

赞助会员 LV1

发表于 2022-5-5 20:27:56 | 显示全部楼层
开心兄弟终于熬出头了

1

主题

597

帖子

1688

积分

神龙

Rank: 15Rank: 15Rank: 15

积分
1688
发表于 2022-5-5 20:29:46 | 显示全部楼层
谢谢楼主分享

0

主题

9

帖子

29

积分

泡泡龙

Rank: 5Rank: 5Rank: 5

积分
29
发表于 2022-5-5 21:02:31 | 显示全部楼层
谢谢楼主分享谢谢楼主分享谢谢楼主分享谢谢楼主分享谢谢楼主分享谢谢楼主分享谢谢楼主分享谢谢楼主分享谢谢楼主分享谢谢楼主分享谢谢楼主分享谢谢楼主分享谢谢楼主分享谢谢楼主分享谢谢楼主分享谢谢楼主分享谢谢楼主分享谢谢楼主分享谢谢楼主分享谢谢楼主分享谢谢楼主分享谢谢楼主分享谢谢楼主分享谢谢楼主分享谢谢楼主分享谢谢楼主分享谢谢楼主分享谢谢楼主分享谢谢楼主分享谢谢楼主分享谢谢楼主分享谢谢楼主分享谢谢楼主分享谢谢楼主分享谢谢楼主分享谢谢楼主分享谢谢楼主分享谢谢楼主分享谢谢楼主分享谢谢楼主分享谢谢楼主分享谢谢楼主分享谢谢楼主分享谢谢楼主分享谢谢楼主分享谢谢楼主分享谢谢楼主分享谢谢楼主分享谢谢楼主分享谢谢楼主分享谢谢楼主分享谢谢楼主分享谢谢楼主分享谢谢楼主分享谢谢楼主分享谢谢楼主分享谢谢楼主分享谢谢楼主分享谢谢楼主分享谢谢楼主分享谢谢楼主分享谢谢楼主分享谢谢楼主分享谢谢楼主分享谢谢楼主分享谢谢楼主分享谢谢楼主分享谢谢楼主分享谢谢楼主分享谢谢楼主分享谢谢楼主分享谢谢楼主分享谢谢楼主分享谢谢楼主分享谢谢楼主分享谢谢楼主分享谢谢楼主分享谢谢楼主分享谢谢楼主分享谢谢楼主分享谢谢楼主分享谢谢楼主分享谢谢楼主分享谢谢楼主分享谢谢楼主分享谢谢楼主分享谢谢楼主分享谢谢楼主分享谢谢楼主分享谢谢楼主分享谢谢楼主分享谢谢楼主分享谢谢楼主分享谢谢楼主分享谢谢楼主分享谢谢楼主分享谢谢楼主分享谢谢楼主分享谢谢楼主分享谢谢楼主分享谢谢楼主分享谢谢楼主分享谢谢楼主分享谢谢楼主分享谢谢楼主分享谢谢楼主分享谢谢楼主分享谢谢楼主分享谢谢楼主分享谢谢楼主分享谢谢楼主分享谢谢楼主分享谢谢楼主分享谢谢楼主分享谢谢楼主分享谢谢楼主分享谢谢楼主分享谢谢楼主分享谢谢楼主分享谢谢楼主分享谢谢楼主分享谢谢楼主分享谢谢楼主分享谢谢楼主分享谢谢楼主分享谢谢楼主分享谢谢楼主分享谢谢楼主分享谢谢楼主分享谢谢楼主分享

0

主题

393

帖子

720

积分

龙的传人

Rank: 13Rank: 13Rank: 13

积分
720
发表于 2022-5-5 22:21:52 | 显示全部楼层
谢谢楼主分享

0

主题

203

帖子

2547

积分

赤血神龙

Rank: 20Rank: 20Rank: 20Rank: 20

积分
2547
发表于 2022-5-5 22:39:34 | 显示全部楼层
楼主辛苦,多谢分享。

0

主题

8217

帖子

7948

积分

海龙王

Rank: 25Rank: 25Rank: 25Rank: 25Rank: 25

积分
7948
发表于 2022-5-5 22:53:45 | 显示全部楼层
有兄弟说这部喜剧超级搅笑,主创和主演在东北非常的出名,非常的值得观看的搅笑喜剧影片。感谢航子分享!

0

主题

3961

帖子

5561

积分

海龙王

Rank: 25Rank: 25Rank: 25Rank: 25Rank: 25

积分
5561
发表于 2022-5-5 23:01:41 | 显示全部楼层
感谢航子的分享

0

主题

103

帖子

461

积分

龙少爷

Rank: 10Rank: 10

积分
461
发表于 2022-5-5 23:27:32 | 显示全部楼层

感谢航子的分享

1

主题

1355

帖子

3678

积分

赤血神龙

Rank: 20Rank: 20Rank: 20Rank: 20

积分
3678
QQ
发表于 2022-5-5 23:40:08 | 显示全部楼层
tks for share................

0

主题

316

帖子

321

积分

龙少爷

Rank: 10Rank: 10

积分
321
发表于 2022-5-5 23:54:17 | 显示全部楼层
谢谢楼主分享

1

主题

856

帖子

2085

积分

赤血神龙

Rank: 20Rank: 20Rank: 20Rank: 20

积分
2085
发表于 2022-5-6 06:12:28 | 显示全部楼层
期待有高清版本发布
您需要登录后才可以回帖 登录 | 立即注册

本版积分规则

小黑屋|梦幻天堂·龙网

GMT+8, 2022-7-5 13:48 , Processed in 0.349915 second(s), 29 queries , Gzip On.

Powered by Discuz! X3.2

© 2001-2013 Comsenz Inc.

快速回复 返回顶部 返回列表