梦幻天堂·龙网

 找回密码
 立即注册
查看: 16896|回复: 155

[最新电影龙网转发] 【龙网转发】【韩寒导演2022众星喜剧爱情大片】【四海】【WebDL-1080p.MKV】【国语】

  [复制链接]

2746

主题

3万

帖子

7万

积分

九鼎龙王·坛主

偶系漂漂滴龙民

Rank: 46Rank: 46Rank: 46Rank: 46Rank: 46Rank: 46

积分
75482

航子大神勋章

发表于 2022-5-1 17:10:27 | 显示全部楼层 |阅读模式
海报





译  名 四海/年轻的故事
片  名 Only Fools Rush In
年  代 2022
国  家 中国
类  别 喜剧/爱情/剧情
语  言 汉语普通话
字  幕 中英硬字幕
评  分 5.5/10 from 148,856 users
链  接 https://movie.douban.com/subject/35337517
文件大小 4.83 GB
片  长 124 Min
导  演 韩寒 Han Han
主  演 刘昊然 Haoran Liu
     刘浩存 Haocun Liu
     沈腾 Teng Shen
     尹正 Zheng Yin
     乔杉 Shan Qiao
     周奇 Qi Zhou
     张宥浩 Youhao Zhang
     冯绍峰 Shaofeng Feng
     黄晓明 Xiaoming Huang
     王彦霖 Yanlin Wang
     陈小春 Jordan Chan

简介

  在码头做摩托车特技表演顺便拉客的年轻人吴仁耀(刘昊然 饰),他多年不见的浪荡父亲吴仁腾(沈腾 饰);梦想大城市生活的餐馆服务员周欢颂和他浮夸真诚的哥哥周欢歌。一支从没有赢过一场比赛的“不败传说”车队频频出战,一群可笑又可爱的小人物命运交织。阿耀和欢颂都立志活成自己亲人的反面,想彼此取暖,彼此独立,却又总不在一个频道上。世事无常,他们不得不背井离乡,迎接一场未知旅途,阿耀的一身技能竟会用在一个自己都意想不到的场合,他的亲情友情和爱情最终又将会是如何……

Video
Format                         : AVC
Format/Info                    : Advanced Video Codec
Format profile                 : High @ L5
Format settings                : CABAC / 6 Ref Frames
Format settings, CABAC         : Yes
Format settings, Reference fra : 6 frames
Codec ID                       : V_MPEG4/ISO/AVC
Duration                       : 2 h 4 min
Bit rate                       : 5 242 kb/s
Width                          : 1 920 pixels
Height                         : 808 pixels
Display aspect ratio           : 2.40:1
Frame rate mode                : Constant
Frame rate                     : 25.000 FPS
Color space                    : YUV
Chroma subsampling             : 4:2:0
Bit depth                      : 8 bits
Scan type                      : Progressive
Bits/(Pixel*Frame)             : 0.135
Stream size                    : 4.56 GiB (94%)
Color range                    : Limited
Color primaries                : BT.709
Transfer characteristics       : BT.709
Matrix coefficients            : BT.709

Audio
Format                         : AAC LC
Format/Info                    : Advanced Audio Codec Low Complexity
Codec ID                       : A_AAC-2
Duration                       : 2 h 4 min
Bit rate                       : 320 kb/s
Channel(s)                     : 2 channels
Channel layout                 : L R
Sampling rate                  : 48.0 kHz
Frame rate                     : 46.875 FPS (1024 SPF)
Compression mode               : Lossy
Stream size                    : 285 MiB (6%)

截图




BT种子下载
梦幻天堂·龙网(www.LWgod.org).四海.年轻的故事.torrent (25.43 KB, 下载次数: 9027)

2746

主题

3万

帖子

7万

积分

九鼎龙王·坛主

偶系漂漂滴龙民

Rank: 46Rank: 46Rank: 46Rank: 46Rank: 46Rank: 46

积分
75482

航子大神勋章

 楼主| 发表于 2022-5-1 17:33:54 | 显示全部楼层
  1. 【龙网转发】【韩寒导演2022众星喜剧爱情大片】【四海】【WebDL-1080p.MKV】【国语】
复制代码

  1. 海报

  2. [img]http://img.longwangbt.com/-10-/05.01/s/00.jpg[/img]

  3. [img]http://img.longwangbt.com/-10-/05.01/s/01.jpg[/img]

  4. 译  名 四海/年轻的故事
  5. 片  名 Only Fools Rush In
  6. 年  代 2022
  7. 国  家 中国
  8. 类  别 喜剧/爱情/剧情
  9. 语  言 汉语普通话
  10. 字  幕 中英硬字幕
  11. 评  分 5.5/10 from 148,856 users
  12. 链  接 [url=http://www.lwgod.org]https://movie.douban.com/subject/35337517[/url]
  13. 文件大小 4.83 GB
  14. 片  长 124 Min
  15. 导  演 韩寒 Han Han
  16. 主  演 刘昊然 Haoran Liu
  17.      刘浩存 Haocun Liu
  18.      沈腾 Teng Shen
  19.      尹正 Zheng Yin
  20.      乔杉 Shan Qiao
  21.      周奇 Qi Zhou
  22.      张宥浩 Youhao Zhang
  23.      冯绍峰 Shaofeng Feng
  24.      黄晓明 Xiaoming Huang
  25.      王彦霖 Yanlin Wang
  26.      陈小春 Jordan Chan

  27. 简介

  28.   在码头做摩托车特技表演顺便拉客的年轻人吴仁耀(刘昊然 饰),他多年不见的浪荡父亲吴仁腾(沈腾 饰);梦想大城市生活的餐馆服务员周欢颂和他浮夸真诚的哥哥周欢歌。一支从没有赢过一场比赛的“不败传说”车队频频出战,一群可笑又可爱的小人物命运交织。阿耀和欢颂都立志活成自己亲人的反面,想彼此取暖,彼此独立,却又总不在一个频道上。世事无常,他们不得不背井离乡,迎接一场未知旅途,阿耀的一身技能竟会用在一个自己都意想不到的场合,他的亲情友情和爱情最终又将会是如何……

  29. [quote][size=2]Video
  30. Format                         : AVC
  31. Format/Info                    : Advanced Video Codec
  32. Format profile                 : High @ L5
  33. Format settings                : CABAC / 6 Ref Frames
  34. Format settings, CABAC         : Yes
  35. Format settings, Reference fra : 6 frames
  36. Codec ID                       : V_MPEG4/ISO/AVC
  37. Duration                       : 2 h 4 min
  38. Bit rate                       : 5 242 kb/s
  39. Width                          : 1 920 pixels
  40. Height                         : 808 pixels
  41. Display aspect ratio           : 2.40:1
  42. Frame rate mode                : Constant
  43. Frame rate                     : 25.000 FPS
  44. Color space                    : YUV
  45. Chroma subsampling             : 4:2:0
  46. Bit depth                      : 8 bits
  47. Scan type                      : Progressive
  48. Bits/(Pixel*Frame)             : 0.135
  49. Stream size                    : 4.56 GiB (94%)
  50. Color range                    : Limited
  51. Color primaries                : BT.709
  52. Transfer characteristics       : BT.709
  53. Matrix coefficients            : BT.709

  54. Audio
  55. Format                         : AAC LC
  56. Format/Info                    : Advanced Audio Codec Low Complexity
  57. Codec ID                       : A_AAC-2
  58. Duration                       : 2 h 4 min
  59. Bit rate                       : 320 kb/s
  60. Channel(s)                     : 2 channels
  61. Channel layout                 : L R
  62. Sampling rate                  : 48.0 kHz
  63. Frame rate                     : 46.875 FPS (1024 SPF)
  64. Compression mode               : Lossy
  65. Stream size                    : 285 MiB (6%)[/size][/quote]
  66. 截图

  67. [img]http://img.longwangbt.com/-10-/05.01/s/02.jpg[/img]
复制代码

4

主题

797

帖子

1085

积分

神龙

梦幻天使

Rank: 15Rank: 15Rank: 15

积分
1085
发表于 2022-5-1 18:01:24 | 显示全部楼层
非常感谢航子分享精彩影片!

0

主题

409

帖子

1625

积分

神龙

Rank: 15Rank: 15Rank: 15

积分
1625
QQ
发表于 2022-5-1 18:23:57 | 显示全部楼层
看过了看过了看过了

0

主题

207

帖子

406

积分

龙少爷

Rank: 10Rank: 10

积分
406
QQ
发表于 2022-5-1 18:26:38 | 显示全部楼层
感谢航子的无私奉献。果断支持一下

0

主题

2470

帖子

4355

积分

赤血神龙

Rank: 20Rank: 20Rank: 20Rank: 20

积分
4355
发表于 2022-5-1 18:44:21 | 显示全部楼层
非常感谢航子分享精彩影片!

0

主题

878

帖子

2005

积分

赤血神龙

Rank: 20Rank: 20Rank: 20Rank: 20

积分
2005

龙网爱心勋章

发表于 2022-5-1 18:48:39 | 显示全部楼层
航子辛苦,下来看看

0

主题

64

帖子

230

积分

龙少爷

Rank: 10Rank: 10

积分
230
发表于 2022-5-1 18:50:12 | 显示全部楼层
感谢分享。

1

主题

597

帖子

1688

积分

神龙

Rank: 15Rank: 15Rank: 15

积分
1688
发表于 2022-5-1 19:04:32 | 显示全部楼层
楼主辛苦,多谢分享。

0

主题

391

帖子

1989

积分

升龙霸·VIP

Rank: 22Rank: 22Rank: 22Rank: 22

积分
1989

龙网VIP·银徽龙网VIP·银牌

发表于 2022-5-1 19:27:00 | 显示全部楼层
非常感谢航子分享精彩影片!

0

主题

576

帖子

1379

积分

神龙

Rank: 15Rank: 15Rank: 15

积分
1379
发表于 2022-5-1 19:48:00 | 显示全部楼层

谢谢楼主分享好电影

7

主题

165

帖子

962

积分

龙的传人

Rank: 13Rank: 13Rank: 13

积分
962
发表于 2022-5-1 19:49:38 | 显示全部楼层
感谢楼主分享好片

0

主题

582

帖子

1161

积分

神龙

Rank: 15Rank: 15Rank: 15

积分
1161
发表于 2022-5-1 19:59:13 | 显示全部楼层
多谢分享!

0

主题

7114

帖子

7335

积分

霸王龙·贵宾

狱血黑龙

Rank: 18Rank: 18

积分
7335
发表于 2022-5-1 21:15:13 | 显示全部楼层
感谢航子的分享,支持支持
当你不再拥有的时候,你唯一可以做的,就是令自己不要忘记!

0

主题

203

帖子

2547

积分

赤血神龙

Rank: 20Rank: 20Rank: 20Rank: 20

积分
2547
发表于 2022-5-1 22:26:05 | 显示全部楼层
楼主辛苦,多谢分享。
您需要登录后才可以回帖 登录 | 立即注册

本版积分规则

小黑屋|梦幻天堂·龙网

GMT+8, 2022-7-5 13:54 , Processed in 0.267640 second(s), 29 queries , Gzip On.

Powered by Discuz! X3.2

© 2001-2013 Comsenz Inc.

快速回复 返回顶部 返回列表