梦幻天堂·龙网

 找回密码
 立即注册
查看: 20824|回复: 207

[最新电影龙网转发] 【龙网转发】【中2022必看票房巨制】【长津湖之水门桥】【WebDL-2160p.MKV】【国语】

  [复制链接]

2816

主题

3万

帖子

7万

积分

九鼎龙王·坛主

偶系漂漂滴龙民

Rank: 46Rank: 46Rank: 46Rank: 46Rank: 46Rank: 46

积分
75796

航子大神勋章

发表于 2022-4-30 14:32:47 | 显示全部楼层 |阅读模式
海报





译  名 长津湖之水门桥/水门桥/长津湖2/三炸水门桥/长津湖(下)
片  名 Water Gate Bridge
年  代 2022
国  家 中国/中国香港
类  别 战争/历史/剧情
语  言 汉语普通话
字  幕 中英硬字幕
评  分 7.2/10 from 248,767 users
链  接 https://movie.douban.com/subject/35613853
文件大小 11.2 GB
片  长 149 Min
导  演 徐克 Hark Tsui
主  演 吴京 Jing Wu
     易烊千玺 Jackson Yee
     朱亚文 Yawen Zhu
     李晨 Chen Li
     韩东君 Elvis Han
     张涵予 Hanyu Zhang
     耿乐 Le Geng
     杜淳 Chun Du
     段奕宏 Yihong Duan
     胡军 Jun Hu
     王丽坤 Likun Wang

简介

  电影《长津湖之水门桥》以抗美援朝战争第二次战役中的长津湖战役为背景,讲述了在结束了新兴里和下碣隅里的战斗之后,七连战士们又接到了更艰巨的任务……

Video
Format                         : HEVC
Format/Info                    : High Efficiency Video Coding
Format profile                 : Main 10 @ L5.1 @ Main
Codec ID                       : V_MPEGH/ISO/HEVC
Duration                       : 2 h 28 min
Bit rate                       : 10.6 Mb/s
Width                          : 3 840 pixels
Height                         : 1 636 pixels
Display aspect ratio           : 2.35:1
Frame rate mode                : Constant
Frame rate                     : 60.000 FPS
Color space                    : YUV
Chroma subsampling             : 4:2:0
Bit depth                      : 10 bits
Bits/(Pixel*Frame)             : 0.028
Stream size                    : 11.1 GiB (98%)
Color range                    : Limited
Color primaries                : BT.709
Transfer characteristics       : BT.709
Matrix coefficients            : BT.709

Audio
Format                         : E-AC-3
Format/Info                    : Enhanced AC-3
Commercial name                : Dolby Digital Plus
Codec ID                       : A_EAC3
Duration                       : 2 h 28 min
Bit rate mode                  : Constant
Bit rate                       : 192 kb/s
Channel(s)                     : 2 channels
Channel layout                 : L R
Sampling rate                  : 48.0 kHz
Frame rate                     : 31.250 FPS (1536 SPF)
Compression mode               : Lossy
Stream size                    : 205 MiB (2%)
Service kind                   : Complete Main

截图




BT种子下载
梦幻天堂·龙网(www.LWgod.org).长津湖之水门桥.torrent (57.55 KB, 下载次数: 13384)

2816

主题

3万

帖子

7万

积分

九鼎龙王·坛主

偶系漂漂滴龙民

Rank: 46Rank: 46Rank: 46Rank: 46Rank: 46Rank: 46

积分
75796

航子大神勋章

 楼主| 发表于 2022-4-30 15:02:27 | 显示全部楼层
  1. 【龙网转发】【中2022必看票房巨制】【长津湖之水门桥】【WebDL-2160p.MKV】【国语】
复制代码

  1. 海报

  2. [img]http://img.longwangbt.com/-10-/04.30/c/00.jpg[/img]

  3. [img]http://img.longwangbt.com/-10-/04.30/c/01.jpg[/img]

  4. 译  名 长津湖之水门桥/水门桥/长津湖2/三炸水门桥/长津湖(下)
  5. 片  名 Water Gate Bridge
  6. 年  代 2022
  7. 国  家 中国/中国香港
  8. 类  别 战争/历史/剧情
  9. 语  言 汉语普通话
  10. 字  幕 中英硬字幕
  11. 评  分 7.2/10 from 248,767 users
  12. 链  接 [url=http://www.lwgod.org]https://movie.douban.com/subject/35613853[/url]
  13. 文件大小 11.2 GB
  14. 片  长 149 Min
  15. 导  演 徐克 Hark Tsui
  16. 主  演 吴京 Jing Wu
  17.      易烊千玺 Jackson Yee
  18.      朱亚文 Yawen Zhu
  19.      李晨 Chen Li
  20.      韩东君 Elvis Han
  21.      张涵予 Hanyu Zhang
  22.      耿乐 Le Geng
  23.      杜淳 Chun Du
  24.      段奕宏 Yihong Duan
  25.      胡军 Jun Hu
  26.      王丽坤 Likun Wang

  27. 简介

  28.   电影《长津湖之水门桥》以抗美援朝战争第二次战役中的长津湖战役为背景,讲述了在结束了新兴里和下碣隅里的战斗之后,七连战士们又接到了更艰巨的任务……

  29. [quote][size=2]Video
  30. Format                         : HEVC
  31. Format/Info                    : High Efficiency Video Coding
  32. Format profile                 : Main 10 @ L5.1 @ Main
  33. Codec ID                       : V_MPEGH/ISO/HEVC
  34. Duration                       : 2 h 28 min
  35. Bit rate                       : 10.6 Mb/s
  36. Width                          : 3 840 pixels
  37. Height                         : 1 636 pixels
  38. Display aspect ratio           : 2.35:1
  39. Frame rate mode                : Constant
  40. Frame rate                     : 60.000 FPS
  41. Color space                    : YUV
  42. Chroma subsampling             : 4:2:0
  43. Bit depth                      : 10 bits
  44. Bits/(Pixel*Frame)             : 0.028
  45. Stream size                    : 11.1 GiB (98%)
  46. Color range                    : Limited
  47. Color primaries                : BT.709
  48. Transfer characteristics       : BT.709
  49. Matrix coefficients            : BT.709

  50. Audio
  51. Format                         : E-AC-3
  52. Format/Info                    : Enhanced AC-3
  53. Commercial name                : Dolby Digital Plus
  54. Codec ID                       : A_EAC3
  55. Duration                       : 2 h 28 min
  56. Bit rate mode                  : Constant
  57. Bit rate                       : 192 kb/s
  58. Channel(s)                     : 2 channels
  59. Channel layout                 : L R
  60. Sampling rate                  : 48.0 kHz
  61. Frame rate                     : 31.250 FPS (1536 SPF)
  62. Compression mode               : Lossy
  63. Stream size                    : 205 MiB (2%)
  64. Service kind                   : Complete Main[/size][/quote]
  65. 截图

  66. [img]http://img.longwangbt.com/-10-/04.30/c/02.jpg[/img]
复制代码

0

主题

301

帖子

680

积分

龙的传人

Rank: 13Rank: 13Rank: 13

积分
680
发表于 2022-4-30 15:27:19 | 显示全部楼层
迅雷下载没有速度呢?等人多了再试试。感谢分享!

0

主题

121

帖子

211

积分

龙少爷

Rank: 10Rank: 10

积分
211
发表于 2022-4-30 15:41:07 | 显示全部楼层
迅雷下载没有速度呢?等人多了再试试。感谢分享

21

主题

2万

帖子

3万

积分

神界龙王

Rank: 30Rank: 30Rank: 30Rank: 30

积分
35455
发表于 2022-4-30 15:41:43 | 显示全部楼层
谢谢航子分享精彩大片

1

主题

1424

帖子

4308

积分

赤血神龙

Rank: 20Rank: 20Rank: 20Rank: 20

积分
4308
QQ
发表于 2022-4-30 15:50:35 | 显示全部楼层
tks for share.........

2

主题

3061

帖子

5438

积分

海龙王

Rank: 25Rank: 25Rank: 25Rank: 25Rank: 25

积分
5438
发表于 2022-4-30 17:12:59 | 显示全部楼层
谢谢航子分享精彩大片

467

主题

1万

帖子

2万

积分

神界龙王

Rank: 30Rank: 30Rank: 30Rank: 30

积分
24520

龙网爱心勋章

发表于 2022-4-30 17:23:30 | 显示全部楼层
迅雷下载没有速度呢?等人多了再试试。感谢分享

0

主题

313

帖子

786

积分

龙的传人

Rank: 13Rank: 13Rank: 13

积分
786
发表于 2022-4-30 18:18:19 | 显示全部楼层
放假在家看电影最棒了。

1

主题

696

帖子

2401

积分

赤血神龙

Rank: 20Rank: 20Rank: 20Rank: 20

积分
2401
QQ
发表于 2022-4-30 19:00:13 | 显示全部楼层
谢谢航子分享

1

主题

1451

帖子

2554

积分

赤血神龙

Rank: 20Rank: 20Rank: 20Rank: 20

积分
2554
发表于 2022-4-30 19:42:58 | 显示全部楼层
感谢航子分享!

0

主题

25

帖子

66

积分

泡泡龙

Rank: 5Rank: 5Rank: 5

积分
66
发表于 2022-4-30 20:10:46 | 显示全部楼层
谢谢梓航哥分享

0

主题

217

帖子

338

积分

龙少爷

Rank: 10Rank: 10

积分
338
发表于 2022-4-30 20:21:17 | 显示全部楼层
感谢航子分享好片

1

主题

4141

帖子

5810

积分

海龙王

Rank: 25Rank: 25Rank: 25Rank: 25Rank: 25

积分
5810
发表于 2022-4-30 20:58:28 | 显示全部楼层
感谢楼主分享!!!!!!

0

主题

416

帖子

2071

积分

赤血神龙

Rank: 20Rank: 20Rank: 20Rank: 20

积分
2071
QQ
发表于 2022-4-30 21:08:54 | 显示全部楼层
感谢楼主分享!!!!!!
您需要登录后才可以回帖 登录 | 立即注册

本版积分规则

小黑屋|梦幻天堂·龙网

GMT+8, 2024-3-1 18:52 , Processed in 0.697095 second(s), 28 queries , Gzip On.

Powered by Discuz! X3.2

© 2001-2013 Comsenz Inc.

快速回复 返回顶部 返回列表