梦幻天堂·龙网

 找回密码
 立即注册
查看: 12358|回复: 139

[最新电影龙网转发] 【龙网转发】【张艺谋2022高分必看战争好片】【狙击手】【WebDL-2160p.MKV】【国语】

  [复制链接]

2746

主题

3万

帖子

7万

积分

九鼎龙王·坛主

偶系漂漂滴龙民

Rank: 46Rank: 46Rank: 46Rank: 46Rank: 46Rank: 46

积分
75482

航子大神勋章

发表于 2022-4-29 21:09:42 | 显示全部楼层 |阅读模式
海报





译  名 狙击手/最冷的枪
片  名 Snipers
年  代 2022
国  家 中国
类  别 剧情/历史/战争
语  言 汉语普通话/英语
字  幕 中英硬字幕
评  分 7.7/10 from 256,675 users
链  接 https://movie.douban.com/subject/35215390
文件大小 4.37 GB
片  长 96 Min
导  演 张艺谋 Yimou Zhang
     张末 Mo Zhang
主  演 陈永胜 Yongsheng Chen
     章宇 Yu Zhang
     张译 Yi Zhang
     刘奕铁 Yitie Liu
     黄炎 Yan Huang
     王梓屹 Ziyi Wang
     陈铭杨 Mingyang Chen
     王乃训 Naixun Wang
     程泓鑫 Hongxin Cheng
     赵琥成 Hucheng Zhao
     李汶聪 Wencong Li

简介

  影片根据抗美援朝战争“冷枪冷炮”运动中神枪手群体事迹改编。1952年冬至1953年初,中国人民志愿军与联合国军在朝鲜战场形成僵持,双方发起了低强度的密集狙击战,史称"冷枪冷炮运动"。在连长(张译 饰)带领下的狙击五班战士枪法过人,成为敌军的心头大患,班长刘文武(章宇 饰)更成为重点狙击对象。为重创狙击五班,敌方调配精英狙击小队,配以最先进的武器装备,更迫使狙击五班战士大永(陈永胜 饰)等人为救同伴进入其设好的险境之地。但正当敌军打响自己如意算盘之时,他们未料到,被他们当作诱饵的侦察兵亮亮(刘奕铁 饰)身上其实隐藏着更大的秘密……

Video
Format                         : HEVC
Format/Info                    : High Efficiency Video Coding
Format profile                 : Main 10 @ L5.1 @ Main
Codec ID                       : V_MPEGH/ISO/HEVC
Duration                       : 1 h 35 min
Bit rate                       : 6 264 kb/s
Width                          : 3 840 pixels
Height                         : 1 606 pixels
Display aspect ratio           : 2.40:1
Frame rate mode                : Constant
Frame rate                     : 60.000 FPS
Color space                    : YUV
Chroma subsampling             : 4:2:0
Bit depth                      : 10 bits
Bits/(Pixel*Frame)             : 0.017
Stream size                    : 4.20 GiB (96%)
Color range                    : Limited
Color primaries                : BT.709
Transfer characteristics       : BT.709
Matrix coefficients            : BT.709

Audio
Format                         : E-AC-3
Format/Info                    : Enhanced AC-3
Commercial name                : Dolby Digital Plus
Codec ID                       : A_EAC3
Duration                       : 1 h 35 min
Bit rate mode                  : Constant
Bit rate                       : 256 kb/s
Channel(s)                     : 6 channels
Channel layout                 : L R C LFE Ls Rs
Sampling rate                  : 48.0 kHz
Frame rate                     : 31.250 FPS (1536 SPF)
Compression mode               : Lossy
Stream size                    : 176 MiB (4%)
Service kind                   : Complete Main

截图




BT种子下载
梦幻天堂·龙网(www.LWgod.org).狙击手.最冷的枪.张艺谋2022新片.torrent (23.14 KB, 下载次数: 8034)

2746

主题

3万

帖子

7万

积分

九鼎龙王·坛主

偶系漂漂滴龙民

Rank: 46Rank: 46Rank: 46Rank: 46Rank: 46Rank: 46

积分
75482

航子大神勋章

 楼主| 发表于 2022-4-29 21:29:46 | 显示全部楼层
  1. 【龙网转发】【张艺谋2022高分必看战争好片】【狙击手】【WebDL-2160p.MKV】【国语】
复制代码

  1. 海报

  2. [img]http://img.longwangbt.com/-10-/04.29/j/00.jpg[/img]

  3. [img]http://img.longwangbt.com/-10-/04.29/j/01.jpg[/img]

  4. 译  名 狙击手/最冷的枪
  5. 片  名 Snipers
  6. 年  代 2022
  7. 国  家 中国
  8. 类  别 剧情/历史/战争
  9. 语  言 汉语普通话/英语
  10. 字  幕 中英硬字幕
  11. 评  分 7.7/10 from 256,675 users
  12. 链  接 [url=http://www.lwgod.org]https://movie.douban.com/subject/35215390[/url]
  13. 文件大小 4.37 GB
  14. 片  长 96 Min
  15. 导  演 张艺谋 Yimou Zhang
  16.      张末 Mo Zhang
  17. 主  演 陈永胜 Yongsheng Chen
  18.      章宇 Yu Zhang
  19.      张译 Yi Zhang
  20.      刘奕铁 Yitie Liu
  21.      黄炎 Yan Huang
  22.      王梓屹 Ziyi Wang
  23.      陈铭杨 Mingyang Chen
  24.      王乃训 Naixun Wang
  25.      程泓鑫 Hongxin Cheng
  26.      赵琥成 Hucheng Zhao
  27.      李汶聪 Wencong Li

  28. 简介

  29.   影片根据抗美援朝战争“冷枪冷炮”运动中神枪手群体事迹改编。1952年冬至1953年初,中国人民志愿军与联合国军在朝鲜战场形成僵持,双方发起了低强度的密集狙击战,史称"冷枪冷炮运动"。在连长(张译 饰)带领下的狙击五班战士枪法过人,成为敌军的心头大患,班长刘文武(章宇 饰)更成为重点狙击对象。为重创狙击五班,敌方调配精英狙击小队,配以最先进的武器装备,更迫使狙击五班战士大永(陈永胜 饰)等人为救同伴进入其设好的险境之地。但正当敌军打响自己如意算盘之时,他们未料到,被他们当作诱饵的侦察兵亮亮(刘奕铁 饰)身上其实隐藏着更大的秘密……

  30. [quote][size=2]Video
  31. Format                         : HEVC
  32. Format/Info                    : High Efficiency Video Coding
  33. Format profile                 : Main 10 @ L5.1 @ Main
  34. Codec ID                       : V_MPEGH/ISO/HEVC
  35. Duration                       : 1 h 35 min
  36. Bit rate                       : 6 264 kb/s
  37. Width                          : 3 840 pixels
  38. Height                         : 1 606 pixels
  39. Display aspect ratio           : 2.40:1
  40. Frame rate mode                : Constant
  41. Frame rate                     : 60.000 FPS
  42. Color space                    : YUV
  43. Chroma subsampling             : 4:2:0
  44. Bit depth                      : 10 bits
  45. Bits/(Pixel*Frame)             : 0.017
  46. Stream size                    : 4.20 GiB (96%)
  47. Color range                    : Limited
  48. Color primaries                : BT.709
  49. Transfer characteristics       : BT.709
  50. Matrix coefficients            : BT.709

  51. Audio
  52. Format                         : E-AC-3
  53. Format/Info                    : Enhanced AC-3
  54. Commercial name                : Dolby Digital Plus
  55. Codec ID                       : A_EAC3
  56. Duration                       : 1 h 35 min
  57. Bit rate mode                  : Constant
  58. Bit rate                       : 256 kb/s
  59. Channel(s)                     : 6 channels
  60. Channel layout                 : L R C LFE Ls Rs
  61. Sampling rate                  : 48.0 kHz
  62. Frame rate                     : 31.250 FPS (1536 SPF)
  63. Compression mode               : Lossy
  64. Stream size                    : 176 MiB (4%)
  65. Service kind                   : Complete Main[/size][/quote]
  66. 截图

  67. [img]http://img.longwangbt.com/-10-/04.29/j/02.jpg[/img]
复制代码

0

主题

580

帖子

584

积分

龙的传人

Rank: 13Rank: 13Rank: 13

积分
584
发表于 2022-4-29 21:52:49 | 显示全部楼层
哇,终于得到航子啦。航子一向可好

0

主题

65

帖子

1192

积分

神龙

Rank: 15Rank: 15Rank: 15

积分
1192
发表于 2022-4-29 21:59:59 | 显示全部楼层
谢谢航子分享

0

主题

10

帖子

25

积分

泡泡龙

Rank: 5Rank: 5Rank: 5

积分
25
发表于 2022-4-29 22:06:16 | 显示全部楼层
很好看的一部影片,多谢航子分享

0

主题

459

帖子

627

积分

龙的传人

Rank: 13Rank: 13Rank: 13

积分
627
发表于 2022-4-29 22:46:51 | 显示全部楼层
感谢航子分享!

1

主题

1355

帖子

3678

积分

赤血神龙

Rank: 20Rank: 20Rank: 20Rank: 20

积分
3678
QQ
发表于 2022-4-29 22:59:53 | 显示全部楼层
tks for share...............

0

主题

203

帖子

2547

积分

赤血神龙

Rank: 20Rank: 20Rank: 20Rank: 20

积分
2547
发表于 2022-4-30 01:11:33 | 显示全部楼层
楼主辛苦,多谢分享。

2

主题

967

帖子

2042

积分

升龙霸·VIP

Rank: 22Rank: 22Rank: 22Rank: 22

积分
2042

龙网VIP·银星龙网VIP·银牌

发表于 2022-4-30 03:08:20 | 显示全部楼层
感谢航子分享

7

主题

572

帖子

2658

积分

升龙霸·VIP

Rank: 22Rank: 22Rank: 22Rank: 22

积分
2658

龙网VIP·银牌龙网VIP·银章

发表于 2022-4-30 03:33:56 | 显示全部楼层
谢谢分享

0

主题

266

帖子

1037

积分

神龙

Rank: 15Rank: 15Rank: 15

积分
1037
发表于 2022-4-30 09:05:12 | 显示全部楼层
老谋子的视角不一样

0

主题

393

帖子

828

积分

龙的传人

Rank: 13Rank: 13Rank: 13

积分
828
发表于 2022-4-30 09:30:28 | 显示全部楼层
航子出品必是精品{:4_148:}{:4_148:}

7

主题

930

帖子

1660

积分

升龙霸·VIP

Rank: 22Rank: 22Rank: 22Rank: 22

积分
1660

龙网VIP·银章

发表于 2022-4-30 10:01:43 | 显示全部楼层
看帖回帖是美德

0

主题

976

帖子

3513

积分

赤血神龙

Rank: 20Rank: 20Rank: 20Rank: 20

积分
3513
发表于 2022-4-30 10:04:42 | 显示全部楼层
感謝航子的分享.

0

主题

470

帖子

1283

积分

神龙

Rank: 15Rank: 15Rank: 15

积分
1283
发表于 2022-4-30 11:19:39 | 显示全部楼层
很新的片子,谢谢航子
您需要登录后才可以回帖 登录 | 立即注册

本版积分规则

小黑屋|梦幻天堂·龙网

GMT+8, 2022-7-5 14:01 , Processed in 0.247589 second(s), 27 queries , Gzip On.

Powered by Discuz! X3.2

© 2001-2013 Comsenz Inc.

快速回复 返回顶部 返回列表