梦幻天堂·龙网

 找回密码
 立即注册
查看: 19589|回复: 114

[最新剧集龙网转发] 【龙网转发】【中2022无限循环必看热剧】【开端.全15集】【WebDL-2160p.MKV】【国语】

  [复制链接]

2746

主题

3万

帖子

7万

积分

九鼎龙王·坛主

偶系漂漂滴龙民

Rank: 46Rank: 46Rank: 46Rank: 46Rank: 46Rank: 46

积分
75482

航子大神勋章

发表于 2022-4-28 21:44:36 | 显示全部楼层 |阅读模式
海报





译  名 开端
片  名 Reset
年  代 2022
国  家 中国
类  别 剧情/科幻/惊悚
语  言 汉语普通话
字  幕 中文硬字幕
评  分 7.8/10 from 734,541 users
链  接 https://movie.douban.com/subject/35332289
文件大小 10.2 GB
单集片长 45 Min
集  数 15
导  演 孙墨龙 Molong Sun
     刘洪源 Hongyuan Liu
     老算 Passsee Mu
主  演 赵今麦 Jinmai Zhao
     白敬亭 Jingting Bai
     刘奕君 Yijun Liu
     黄觉 Jue Huang
     刘丹 Dan Liu
     刘涛 Tao Liu
     宋家腾 Jiateng Song
     曾柯琅 Kelang Zeng
     张喜前 Xiqian Zhang
     马兰 Lan Ma
     焦鹏 Peng Jiao
     李感 Gan Li
     范帅琦 Shuaiqi Fan

简介

  该剧改编自祈祷君的同名小说,讲述了游戏架构师肖鹤云(白敬亭 饰)和在校大学生李诗情(赵今麦 饰)在遭遇公交车爆炸后“死而复生”,于公交车出事的时间段内不断经历时间循环,从下车自救到打破隔阂并肩作战,努力阻止爆炸、寻找真相的故事。

Video
Format                         : HEVC
Format/Info                    : High Efficiency Video Coding
Format profile                 : Main @ L5 @ Main
Codec ID                       : V_MPEGH/ISO/HEVC
Duration                       : 44 min 51 s
Bit rate                       : 2 797 kb/s
Width                          : 3 840 pixels
Height                         : 1 628 pixels
Display aspect ratio           : 2.35:1
Frame rate mode                : Constant
Frame rate                     : 25.000 FPS
Color space                    : YUV
Chroma subsampling             : 4:2:0
Bit depth                      : 8 bits
Bits/(Pixel*Frame)             : 0.018
Stream size                    : 897 MiB (96%)

Audio
Format                         : AAC LC
Format/Info                    : Advanced Audio Codec Low Complexity
Codec ID                       : A_AAC-2
Duration                       : 44 min 51 s
Bit rate                       : 125 kb/s
Channel(s)                     : 2 channels
Channel layout                 : L R
Sampling rate                  : 48.0 kHz
Frame rate                     : 46.875 FPS (1024 SPF)
Compression mode               : Lossy
Stream size                    : 40.2 MiB (4%)

截图




BT种子下载
梦幻天堂·龙网(www.LWgod.org).开端.中国2022热剧.全15集.torrent (54.18 KB, 下载次数: 3508)

2746

主题

3万

帖子

7万

积分

九鼎龙王·坛主

偶系漂漂滴龙民

Rank: 46Rank: 46Rank: 46Rank: 46Rank: 46Rank: 46

积分
75482

航子大神勋章

 楼主| 发表于 2022-4-28 22:04:29 | 显示全部楼层
  1. 【龙网转发】【中2022无限循环必看热剧】【开端.全15集】【WebDL-2160p.MKV】【国语】
复制代码

  1. 海报

  2. [img]http://img.longwangbt.com/-10-/04.28/k/00.jpg[/img]

  3. [img]http://img.longwangbt.com/-10-/04.28/k/01.jpg[/img]

  4. 译  名 开端
  5. 片  名 Reset
  6. 年  代 2022
  7. 国  家 中国
  8. 类  别 剧情/科幻/惊悚
  9. 语  言 汉语普通话
  10. 字  幕 中文硬字幕
  11. 评  分 7.8/10 from 734,541 users
  12. 链  接 [url=http://www.lwgod.org]https://movie.douban.com/subject/35332289[/url]
  13. 文件大小 10.2 GB
  14. 单集片长 45 Min
  15. 集  数 15
  16. 导  演 孙墨龙 Molong Sun
  17.      刘洪源 Hongyuan Liu
  18.      老算 Passsee Mu
  19. 主  演 赵今麦 Jinmai Zhao
  20.      白敬亭 Jingting Bai
  21.      刘奕君 Yijun Liu
  22.      黄觉 Jue Huang
  23.      刘丹 Dan Liu
  24.      刘涛 Tao Liu
  25.      宋家腾 Jiateng Song
  26.      曾柯琅 Kelang Zeng
  27.      张喜前 Xiqian Zhang
  28.      马兰 Lan Ma
  29.      焦鹏 Peng Jiao
  30.      李感 Gan Li
  31.      范帅琦 Shuaiqi Fan

  32. 简介

  33.   该剧改编自祈祷君的同名小说,讲述了游戏架构师肖鹤云(白敬亭 饰)和在校大学生李诗情(赵今麦 饰)在遭遇公交车爆炸后“死而复生”,于公交车出事的时间段内不断经历时间循环,从下车自救到打破隔阂并肩作战,努力阻止爆炸、寻找真相的故事。

  34. [quote][size=2]Video
  35. Format                         : HEVC
  36. Format/Info                    : High Efficiency Video Coding
  37. Format profile                 : Main @ L5 @ Main
  38. Codec ID                       : V_MPEGH/ISO/HEVC
  39. Duration                       : 44 min 51 s
  40. Bit rate                       : 2 797 kb/s
  41. Width                          : 3 840 pixels
  42. Height                         : 1 628 pixels
  43. Display aspect ratio           : 2.35:1
  44. Frame rate mode                : Constant
  45. Frame rate                     : 25.000 FPS
  46. Color space                    : YUV
  47. Chroma subsampling             : 4:2:0
  48. Bit depth                      : 8 bits
  49. Bits/(Pixel*Frame)             : 0.018
  50. Stream size                    : 897 MiB (96%)

  51. Audio
  52. Format                         : AAC LC
  53. Format/Info                    : Advanced Audio Codec Low Complexity
  54. Codec ID                       : A_AAC-2
  55. Duration                       : 44 min 51 s
  56. Bit rate                       : 125 kb/s
  57. Channel(s)                     : 2 channels
  58. Channel layout                 : L R
  59. Sampling rate                  : 48.0 kHz
  60. Frame rate                     : 46.875 FPS (1024 SPF)
  61. Compression mode               : Lossy
  62. Stream size                    : 40.2 MiB (4%)[/size][/quote]
  63. 截图

  64. [img]http://img.longwangbt.com/-10-/04.28/k/02.jpg[/img]
复制代码

0

主题

527

帖子

1431

积分

升龙霸·VIP

Rank: 22Rank: 22Rank: 22Rank: 22

积分
1431

龙网VIP·银徽龙网VIP·银牌

发表于 2022-4-28 22:15:58 | 显示全部楼层
航子女神发电视剧了,哈哈

0

主题

811

帖子

2233

积分

赤血神龙

Rank: 20Rank: 20Rank: 20Rank: 20

积分
2233
发表于 2022-4-28 22:21:52 | 显示全部楼层
换口味,还不错哦

0

主题

362

帖子

939

积分

龙的传人

Rank: 13Rank: 13Rank: 13

积分
939
发表于 2022-4-28 22:24:53 | 显示全部楼层
开篇竟是部国产剧,意外,很意外!

0

主题

203

帖子

2547

积分

赤血神龙

Rank: 20Rank: 20Rank: 20Rank: 20

积分
2547
发表于 2022-4-28 22:28:33 | 显示全部楼层
楼主辛苦,多谢分享。

0

主题

459

帖子

627

积分

龙的传人

Rank: 13Rank: 13Rank: 13

积分
627
发表于 2022-4-28 22:49:19 | 显示全部楼层
感谢航子分享

1

主题

1355

帖子

3678

积分

赤血神龙

Rank: 20Rank: 20Rank: 20Rank: 20

积分
3678
QQ
发表于 2022-4-28 23:10:11 | 显示全部楼层
tks for share..............

11

主题

545

帖子

2158

积分

赤血神龙

Rank: 20Rank: 20Rank: 20Rank: 20

积分
2158
发表于 2022-4-28 23:13:24 | 显示全部楼层
知道  但一直没看国剧,既然航子推荐就看看

0

主题

294

帖子

632

积分

龙的传人

Rank: 13Rank: 13Rank: 13

积分
632
发表于 2022-4-29 00:07:25 | 显示全部楼层
感谢航子分享

2

主题

994

帖子

2953

积分

赤血神龙

Rank: 20Rank: 20Rank: 20Rank: 20

积分
2953
发表于 2022-4-29 00:13:17 | 显示全部楼层
这部剧集据说不错的,应该值得看看。谢谢航子的分享。

0

主题

170

帖子

2083

积分

赤血神龙

Rank: 20Rank: 20Rank: 20Rank: 20

积分
2083
发表于 2022-4-29 00:35:34 | 显示全部楼层
多谢航子,希望多分享好的美剧,韩剧~!!

0

主题

582

帖子

1161

积分

神龙

Rank: 15Rank: 15Rank: 15

积分
1161
发表于 2022-4-29 04:27:38 | 显示全部楼层
多谢分享!很久没看国产电视剧了。

0

主题

7114

帖子

7335

积分

霸王龙·贵宾

狱血黑龙

Rank: 18Rank: 18

积分
7335
发表于 2022-4-29 08:27:18 | 显示全部楼层
感谢航子的好片分享,支持支持
当你不再拥有的时候,你唯一可以做的,就是令自己不要忘记!

0

主题

160

帖子

1663

积分

神龙

Rank: 15Rank: 15Rank: 15

积分
1663
发表于 2022-4-29 09:33:05 | 显示全部楼层
谢谢分享,收下咯。
您需要登录后才可以回帖 登录 | 立即注册

本版积分规则

小黑屋|梦幻天堂·龙网

GMT+8, 2022-7-5 13:55 , Processed in 0.214283 second(s), 29 queries , Gzip On.

Powered by Discuz! X3.2

© 2001-2013 Comsenz Inc.

快速回复 返回顶部 返回列表