梦幻天堂·龙网

 找回密码
 立即注册
查看: 9833|回复: 92

[最新电影龙网转发] 【龙网转发】【中2022票房高分必看佳作】【奇迹笨小孩】【WebDL-2160p.MKV】【国语】

[复制链接]

2746

主题

3万

帖子

7万

积分

九鼎龙王·坛主

偶系漂漂滴龙民

Rank: 46Rank: 46Rank: 46Rank: 46Rank: 46Rank: 46

积分
75482

航子大神勋章

发表于 2022-4-24 21:53:20 | 显示全部楼层 |阅读模式
海报





译  名 奇迹·笨小孩/奇迹/奇迹年代
片  名 Nice View
年  代 2022
国  家 中国
类  别 剧情
语  言 汉语普通话
字  幕 中文硬字幕
评  分 7.4/10 from 388,051 users
链  接 https://movie.douban.com/subject/35312437
文件大小 5.67 GB
片  长 106 Min
导  演 文牧野 Muye Wen
主  演 易烊千玺 Jackson Yee
     田雨 Yu Tian
     陈哈琳 Halin Chen
     齐溪 Xi Qi
     公磊 Lei Gong
     许君聪 Juncong Xu
     王宁 Ning Wang
     黄尧 Yao Huang
     巩金国 Jinguo Gong
     田壮壮 Zhuangzhuang Tian
     王传君 Chuanjun Wang

简介

  二十岁的景浩(易烊千玺 饰)独自带着年幼的妹妹来到深圳生活,兄妹俩生活温馨却拮据。为了妹妹高昂的手术费,机缘巧合之下,景浩得到一个机会,本以为美好生活即将来临,却不料遭遇重创。在时间和金钱的双重压力下,毫无退路的景浩决定孤注一掷,而他陷入困境的平凡人生,又能否燃起希望的火花?

  电影《奇迹》是中宣部国家电影局2021年重点电影项目,也是2021年重点建党百年献礼片,描述十八大以后新时代年轻人在深圳创业的影片。

Video
Format                         : HEVC
Format/Info                    : High Efficiency Video Coding
Format profile                 : Main 10 @ L5.1 @ Main
Codec ID                       : V_MPEGH/ISO/HEVC
Duration                       : 1 h 46 min
Bit rate                       : 7 270 kb/s
Width                          : 3 840 pixels
Height                         : 2 072 pixels
Display aspect ratio           : 1.85:1
Frame rate mode                : Constant
Frame rate                     : 60.000 FPS
Color space                    : YUV
Chroma subsampling             : 4:2:0
Bit depth                      : 10 bits
Bits/(Pixel*Frame)             : 0.015
Stream size                    : 5.39 GiB (95%)
Color range                    : Limited
Color primaries                : BT.709
Transfer characteristics       : BT.709
Matrix coefficients            : BT.709

Audio
Format                         : E-AC-3
Format/Info                    : Enhanced AC-3
Commercial name                : Dolby Digital Plus
Codec ID                       : A_EAC3
Duration                       : 1 h 46 min
Bit rate mode                  : Constant
Bit rate                       : 384 kb/s
Channel(s)                     : 6 channels
Channel layout                 : L R C LFE Ls Rs
Sampling rate                  : 48.0 kHz
Frame rate                     : 31.250 FPS (1536 SPF)
Compression mode               : Lossy
Delay relative to video        : 24 ms
Stream size                    : 291 MiB (5%)
Service kind                   : Complete Main

截图




BT种子下载
梦幻天堂·龙网(www.LWgod.org).奇迹·笨小孩.奇迹年代.torrent (29.62 KB, 下载次数: 4358)

2746

主题

3万

帖子

7万

积分

九鼎龙王·坛主

偶系漂漂滴龙民

Rank: 46Rank: 46Rank: 46Rank: 46Rank: 46Rank: 46

积分
75482

航子大神勋章

 楼主| 发表于 2022-4-24 22:13:12 | 显示全部楼层
  1. 【龙网转发】【中2022票房高分必看佳作】【奇迹笨小孩】【WebDL-2160p.MKV】【国语】
复制代码

  1. 海报

  2. [img]http://img.longwangbt.com/-10-/04.24/q/00.jpg[/img]

  3. [img]http://img.longwangbt.com/-10-/04.24/q/01.jpg[/img]

  4. 译  名 奇迹·笨小孩/奇迹/奇迹年代
  5. 片  名 Nice View
  6. 年  代 2022
  7. 国  家 中国
  8. 类  别 剧情
  9. 语  言 汉语普通话
  10. 字  幕 中文硬字幕
  11. 评  分 7.4/10 from 388,051 users
  12. 链  接 [url=http://www.lwgod.org]https://movie.douban.com/subject/35312437[/url]
  13. 文件大小 5.67 GB
  14. 片  长 106 Min
  15. 导  演 文牧野 Muye Wen
  16. 主  演 易烊千玺 Jackson Yee
  17.      田雨 Yu Tian
  18.      陈哈琳 Halin Chen
  19.      齐溪 Xi Qi
  20.      公磊 Lei Gong
  21.      许君聪 Juncong Xu
  22.      王宁 Ning Wang
  23.      黄尧 Yao Huang
  24.      巩金国 Jinguo Gong
  25.      田壮壮 Zhuangzhuang Tian
  26.      王传君 Chuanjun Wang

  27. 简介

  28.   二十岁的景浩(易烊千玺 饰)独自带着年幼的妹妹来到深圳生活,兄妹俩生活温馨却拮据。为了妹妹高昂的手术费,机缘巧合之下,景浩得到一个机会,本以为美好生活即将来临,却不料遭遇重创。在时间和金钱的双重压力下,毫无退路的景浩决定孤注一掷,而他陷入困境的平凡人生,又能否燃起希望的火花?

  29.   电影《奇迹》是中宣部国家电影局2021年重点电影项目,也是2021年重点建党百年献礼片,描述十八大以后新时代年轻人在深圳创业的影片。

  30. [quote][size=2]Video
  31. Format                         : HEVC
  32. Format/Info                    : High Efficiency Video Coding
  33. Format profile                 : Main 10 @ L5.1 @ Main
  34. Codec ID                       : V_MPEGH/ISO/HEVC
  35. Duration                       : 1 h 46 min
  36. Bit rate                       : 7 270 kb/s
  37. Width                          : 3 840 pixels
  38. Height                         : 2 072 pixels
  39. Display aspect ratio           : 1.85:1
  40. Frame rate mode                : Constant
  41. Frame rate                     : 60.000 FPS
  42. Color space                    : YUV
  43. Chroma subsampling             : 4:2:0
  44. Bit depth                      : 10 bits
  45. Bits/(Pixel*Frame)             : 0.015
  46. Stream size                    : 5.39 GiB (95%)
  47. Color range                    : Limited
  48. Color primaries                : BT.709
  49. Transfer characteristics       : BT.709
  50. Matrix coefficients            : BT.709

  51. Audio
  52. Format                         : E-AC-3
  53. Format/Info                    : Enhanced AC-3
  54. Commercial name                : Dolby Digital Plus
  55. Codec ID                       : A_EAC3
  56. Duration                       : 1 h 46 min
  57. Bit rate mode                  : Constant
  58. Bit rate                       : 384 kb/s
  59. Channel(s)                     : 6 channels
  60. Channel layout                 : L R C LFE Ls Rs
  61. Sampling rate                  : 48.0 kHz
  62. Frame rate                     : 31.250 FPS (1536 SPF)
  63. Compression mode               : Lossy
  64. Delay relative to video        : 24 ms
  65. Stream size                    : 291 MiB (5%)
  66. Service kind                   : Complete Main[/size][/quote]
  67. 截图

  68. [img]http://img.longwangbt.com/-10-/04.24/q/02.jpg[/img]
复制代码

1

主题

1355

帖子

3678

积分

赤血神龙

Rank: 20Rank: 20Rank: 20Rank: 20

积分
3678
QQ
发表于 2022-4-24 22:23:26 | 显示全部楼层
tks for share.............

0

主题

203

帖子

2547

积分

赤血神龙

Rank: 20Rank: 20Rank: 20Rank: 20

积分
2547
发表于 2022-4-24 22:26:43 | 显示全部楼层
楼主辛苦,多谢分享。

2

主题

967

帖子

2042

积分

升龙霸·VIP

Rank: 22Rank: 22Rank: 22Rank: 22

积分
2042

龙网VIP·银星龙网VIP·银牌

发表于 2022-4-24 22:35:51 | 显示全部楼层
航子辛苦

4

主题

511

帖子

2254

积分

赤血神龙

Rank: 20Rank: 20Rank: 20Rank: 20

积分
2254

龙网爱心勋章

QQ
发表于 2022-4-24 22:37:09 | 显示全部楼层
谢谢分享大电影
生活不容易

0

主题

298

帖子

590

积分

龙的传人

Rank: 13Rank: 13Rank: 13

积分
590
发表于 2022-4-24 22:43:32 | 显示全部楼层
我喜欢航子咋办

0

主题

238

帖子

992

积分

龙的传人

Rank: 13Rank: 13Rank: 13

积分
992
发表于 2022-4-24 23:05:34 | 显示全部楼层
感谢航子分享!!!

0

主题

12

帖子

20

积分

泡泡龙

Rank: 5Rank: 5Rank: 5

积分
20
发表于 2022-4-24 23:28:45 | 显示全部楼层
楼主辛苦,多谢分享。

0

主题

2582

帖子

4272

积分

赤血神龙

Rank: 20Rank: 20Rank: 20Rank: 20

积分
4272
发表于 2022-4-25 00:33:59 | 显示全部楼层
感谢航子分享

0

主题

152

帖子

609

积分

龙的传人

Rank: 13Rank: 13Rank: 13

积分
609
发表于 2022-4-25 01:12:30 | 显示全部楼层
谢谢分享,

1

主题

65

帖子

236

积分

龙少爷

Rank: 10Rank: 10

积分
236
发表于 2022-4-25 01:33:44 | 显示全部楼层
感谢分享哦 谢谢

0

主题

7114

帖子

7335

积分

霸王龙·贵宾

狱血黑龙

Rank: 18Rank: 18

积分
7335
发表于 2022-4-25 01:43:39 | 显示全部楼层
感谢航子的好片分享,支持支持
当你不再拥有的时候,你唯一可以做的,就是令自己不要忘记!

0

主题

1910

帖子

2848

积分

赤血神龙

Rank: 20Rank: 20Rank: 20Rank: 20

积分
2848
发表于 2022-4-25 08:57:42 | 显示全部楼层
这个倒是想看看了,谢谢分享

0

主题

31

帖子

77

积分

龙之子

Rank: 8Rank: 8Rank: 8Rank: 8

积分
77
发表于 2022-4-25 09:25:00 | 显示全部楼层
感谢分享,这片励志感人
您需要登录后才可以回帖 登录 | 立即注册

本版积分规则

小黑屋|梦幻天堂·龙网

GMT+8, 2022-7-5 15:33 , Processed in 0.381526 second(s), 27 queries , Gzip On.

Powered by Discuz! X3.2

© 2001-2013 Comsenz Inc.

快速回复 返回顶部 返回列表