梦幻天堂·龙网

 找回密码
 立即注册
查看: 6993|回复: 84

[最新电影龙网转发] 【龙网转发】【中2022票房喜剧动画】【熊出没重返地球】【WebDL-2160p.MKV】【国语】

[复制链接]

2746

主题

3万

帖子

7万

积分

九鼎龙王·坛主

偶系漂漂滴龙民

Rank: 46Rank: 46Rank: 46Rank: 46Rank: 46Rank: 46

积分
75482

航子大神勋章

发表于 2022-4-24 21:11:38 | 显示全部楼层 |阅读模式
海报





译  名 熊出没·重返地球/熊出没大电影8
片  名 Boonie Bears: Back to Earth
年  代 2022
国  家 中国
类  别 动画/喜剧/科幻
语  言 汉语普通话
字  幕 中文硬字幕
评  分 6.5/10 from 20,999 users
链  接 https://movie.douban.com/subject/35377026
文件大小 7.42 GB
片  长 99 Min
导  演 林汇达 Huida Lin
主  演 张秉君 Bingjun Zhang
     李婉瑶 Wanyao Li
     张伟 Wei Zhang
     谭笑 Xiao Tan
     程子洋 Ziyang Cheng
     刘思奇 Siqi Liu

简介

  有点懒又有点馋的熊二虽然总是各种失误犯错,内心却一直梦想成为一位英雄,以此获得大家特别是哥哥熊大的认可。

  一块外星原核的坠落打破了狗熊岭的平静,熊二意外的与外星原核合体,成为了拥有外星智慧能量的熊!随之而来的是“外星人”阿布的抢夺。阿布为了夺回原核,故意制造事端,让熊二众叛亲离。就在阿布将要成功的时候,一支神秘高科技军团的攻击彻底打乱了计划,导致熊强组合甚至整个地球于巨大的危难之中。

  阿布隐藏的身份以及来到地球的真正目的到底是什么?神秘的高科技军团背后有何故事?自暴自弃的熊二能否振作起来实现他的英雄梦?他们能否挽救地球的危机?

Video
Format                         : AVC
Format/Info                    : Advanced Video Codec
Format profile                 : High @ L5.1
Format settings                : CABAC / 4 Ref Frames
Format settings, CABAC         : Yes
Format settings, Reference fra : 4 frames
Codec ID                       : V_MPEG4/ISO/AVC
Duration                       : 1 h 39 min
Bit rate                       : 10.5 Mb/s
Width                          : 3 840 pixels
Height                         : 2 160 pixels
Display aspect ratio           : 16:9
Frame rate mode                : Constant
Frame rate                     : 25.000 FPS
Color space                    : YUV
Chroma subsampling             : 4:2:0
Bit depth                      : 8 bits
Scan type                      : Progressive
Bits/(Pixel*Frame)             : 0.051
Stream size                    : 7.29 GiB (98%)

Audio
Format                         : AAC LC
Format/Info                    : Advanced Audio Codec Low Complexity
Codec ID                       : A_AAC-2
Duration                       : 1 h 39 min
Bit rate                       : 192 kb/s
Channel(s)                     : 2 channels
Channel layout                 : L R
Sampling rate                  : 44.1 kHz
Frame rate                     : 43.066 FPS (1024 SPF)
Compression mode               : Lossy
Stream size                    : 135 MiB (2%)

截图




BT种子下载
梦幻天堂·龙网(www.LWgod.org).熊出没·重返地球.熊出没大电影8.torrent (38.42 KB, 下载次数: 3722)

2746

主题

3万

帖子

7万

积分

九鼎龙王·坛主

偶系漂漂滴龙民

Rank: 46Rank: 46Rank: 46Rank: 46Rank: 46Rank: 46

积分
75482

航子大神勋章

 楼主| 发表于 2022-4-24 21:31:38 | 显示全部楼层
  1. 【龙网转发】【中2022票房喜剧动画】【熊出没重返地球】【WebDL-2160p.MKV】【国语】
复制代码

  1. 海报

  2. [img]http://img.longwangbt.com/-10-/04.24/x/00.jpg[/img]

  3. [img]http://img.longwangbt.com/-10-/04.24/x/01.jpg[/img]

  4. 译  名 熊出没·重返地球/熊出没大电影8
  5. 片  名 Boonie Bears: Back to Earth
  6. 年  代 2022
  7. 国  家 中国
  8. 类  别 动画/喜剧/科幻
  9. 语  言 汉语普通话
  10. 字  幕 中文硬字幕
  11. 评  分 6.5/10 from 20,999 users
  12. 链  接 [url=http://www.lwgod.org]https://movie.douban.com/subject/35377026[/url]
  13. 文件大小 7.42 GB
  14. 片  长 99 Min
  15. 导  演 林汇达 Huida Lin
  16. 主  演 张秉君 Bingjun Zhang
  17.      李婉瑶 Wanyao Li
  18.      张伟 Wei Zhang
  19.      谭笑 Xiao Tan
  20.      程子洋 Ziyang Cheng
  21.      刘思奇 Siqi Liu

  22. 简介

  23.   有点懒又有点馋的熊二虽然总是各种失误犯错,内心却一直梦想成为一位英雄,以此获得大家特别是哥哥熊大的认可。

  24.   一块外星原核的坠落打破了狗熊岭的平静,熊二意外的与外星原核合体,成为了拥有外星智慧能量的熊!随之而来的是“外星人”阿布的抢夺。阿布为了夺回原核,故意制造事端,让熊二众叛亲离。就在阿布将要成功的时候,一支神秘高科技军团的攻击彻底打乱了计划,导致熊强组合甚至整个地球于巨大的危难之中。

  25.   阿布隐藏的身份以及来到地球的真正目的到底是什么?神秘的高科技军团背后有何故事?自暴自弃的熊二能否振作起来实现他的英雄梦?他们能否挽救地球的危机?

  26. [quote][size=2]Video
  27. Format                         : AVC
  28. Format/Info                    : Advanced Video Codec
  29. Format profile                 : High @ L5.1
  30. Format settings                : CABAC / 4 Ref Frames
  31. Format settings, CABAC         : Yes
  32. Format settings, Reference fra : 4 frames
  33. Codec ID                       : V_MPEG4/ISO/AVC
  34. Duration                       : 1 h 39 min
  35. Bit rate                       : 10.5 Mb/s
  36. Width                          : 3 840 pixels
  37. Height                         : 2 160 pixels
  38. Display aspect ratio           : 16:9
  39. Frame rate mode                : Constant
  40. Frame rate                     : 25.000 FPS
  41. Color space                    : YUV
  42. Chroma subsampling             : 4:2:0
  43. Bit depth                      : 8 bits
  44. Scan type                      : Progressive
  45. Bits/(Pixel*Frame)             : 0.051
  46. Stream size                    : 7.29 GiB (98%)

  47. Audio
  48. Format                         : AAC LC
  49. Format/Info                    : Advanced Audio Codec Low Complexity
  50. Codec ID                       : A_AAC-2
  51. Duration                       : 1 h 39 min
  52. Bit rate                       : 192 kb/s
  53. Channel(s)                     : 2 channels
  54. Channel layout                 : L R
  55. Sampling rate                  : 44.1 kHz
  56. Frame rate                     : 43.066 FPS (1024 SPF)
  57. Compression mode               : Lossy
  58. Stream size                    : 135 MiB (2%)[/size][/quote]
  59. 截图

  60. [img]http://img.longwangbt.com/-10-/04.24/x/02.jpg[/img]
复制代码

1

主题

1355

帖子

3678

积分

赤血神龙

Rank: 20Rank: 20Rank: 20Rank: 20

积分
3678
QQ
发表于 2022-4-24 21:45:43 | 显示全部楼层
tks for share................

4

主题

511

帖子

2254

积分

赤血神龙

Rank: 20Rank: 20Rank: 20Rank: 20

积分
2254

龙网爱心勋章

QQ
发表于 2022-4-24 22:00:54 | 显示全部楼层
明星 熊  哈哈
生活不容易

0

主题

298

帖子

590

积分

龙的传人

Rank: 13Rank: 13Rank: 13

积分
590
发表于 2022-4-24 22:15:19 | 显示全部楼层
我喜欢航子 怎么办啊

0

主题

203

帖子

2547

积分

赤血神龙

Rank: 20Rank: 20Rank: 20Rank: 20

积分
2547
发表于 2022-4-24 22:26:13 | 显示全部楼层
楼主辛苦,多谢分享。

2

主题

967

帖子

2042

积分

升龙霸·VIP

Rank: 22Rank: 22Rank: 22Rank: 22

积分
2042

龙网VIP·银星龙网VIP·银牌

发表于 2022-4-24 22:35:31 | 显示全部楼层
感谢航子分享

0

主题

2582

帖子

4272

积分

赤血神龙

Rank: 20Rank: 20Rank: 20Rank: 20

积分
4272
发表于 2022-4-25 00:33:32 | 显示全部楼层
感谢航子分享

1

主题

65

帖子

236

积分

龙少爷

Rank: 10Rank: 10

积分
236
发表于 2022-4-25 01:33:15 | 显示全部楼层
感谢分享哦 谢谢

0

主题

7114

帖子

7335

积分

霸王龙·贵宾

狱血黑龙

Rank: 18Rank: 18

积分
7335
发表于 2022-4-25 01:43:28 | 显示全部楼层
感谢航子的好片分享,支持支持
当你不再拥有的时候,你唯一可以做的,就是令自己不要忘记!

0

主题

582

帖子

1161

积分

神龙

Rank: 15Rank: 15Rank: 15

积分
1161
发表于 2022-4-25 09:07:26 | 显示全部楼层
多谢分享!我外甥孩子爱看的动画片~~

1

主题

799

帖子

3042

积分

赤血神龙

Rank: 20Rank: 20Rank: 20Rank: 20

积分
3042
发表于 2022-4-25 10:03:27 | 显示全部楼层

感谢航子分享!
aidianyng

0

主题

2470

帖子

4355

积分

赤血神龙

Rank: 20Rank: 20Rank: 20Rank: 20

积分
4355
发表于 2022-4-25 10:04:43 | 显示全部楼层
感谢航子分享!!!

0

主题

1万

帖子

1万

积分

神界龙王

Rank: 30Rank: 30Rank: 30Rank: 30

积分
14552
发表于 2022-4-25 10:17:00 | 显示全部楼层
支持下!!!!!!

1

主题

1383

帖子

2241

积分

赤血神龙

Rank: 20Rank: 20Rank: 20Rank: 20

积分
2241
发表于 2022-4-25 11:23:45 | 显示全部楼层
感谢航子分享!
您需要登录后才可以回帖 登录 | 立即注册

本版积分规则

小黑屋|梦幻天堂·龙网

GMT+8, 2022-7-5 14:49 , Processed in 0.227674 second(s), 27 queries , Gzip On.

Powered by Discuz! X3.2

© 2001-2013 Comsenz Inc.

快速回复 返回顶部 返回列表