梦幻天堂·龙网

 找回密码
 立即注册
查看: 17086|回复: 168

[最新电影龙网转发] 【龙网转发】【美国2022万众期待冒险巨制】【神秘海域】【WebDL-2160p.MKV】【中字】

  [复制链接]

2746

主题

3万

帖子

7万

积分

九鼎龙王·坛主

偶系漂漂滴龙民

Rank: 46Rank: 46Rank: 46Rank: 46Rank: 46Rank: 46

积分
75482

航子大神勋章

发表于 2022-4-23 21:44:26 | 显示全部楼层 |阅读模式
海报





译  名 神秘海域/秘境探险(港/台)/神秘海域:德雷克船长的宝藏
片  名 Uncharted
年  代 2022
国  家 美国
类  别 动作/冒险
语  言 英语/西班牙语
字  幕 中简/中繁/英语
评  分 6.3/10 from 40,912 users
链  接 https://movie.douban.com/subject/3822687
文件大小 10.0 GB
片  长 116 Min
导  演 鲁本·弗雷斯彻 Ruben Fleischer
主  演 汤姆·赫兰德 Tom Holland
     马克·沃尔伯格 Mark Wahlberg
     索菲娅·阿里 Sophia Ali
     塔蒂·加布里埃 Tati Gabrielle
     安东尼奥·班德拉斯 Antonio Banderas
     史蒂芬·威丁顿 Steven Waddington
     乔治娅·古德曼 Georgia Goodman
     迪尔梅德·默塔 Diarmaid Murtagh
     约瑟夫·巴德拉玛 Joseph Balderrama
     阿拉娜·博登 Alana Boden
     罗伯特‧马瑟 Robert Maaser

简介

  足智多谋的内森·德雷克(汤姆·赫兰德 饰)和经验丰富的寻宝者维克多·苏利文(马克·沃尔伯格 饰)组成搭档,追寻费迪南·麦哲伦500年前遗失的宝藏。一开始,这似乎只是个简单的寻宝工作,但很快演变成了一场惊险刺激、横跨全球的竞赛。他们必须赶在冷酷无情的蒙卡达(安东尼奥·班德拉斯 饰)之前寻得宝藏。蒙卡达坚信他和他的家族才是宝藏的正当继承人。若内森和苏利文能破译线索,解开这世界上最古老的谜团,他们便能找到价值50亿美元的宝藏,甚至还可能找到内森失踪已久的哥哥……但首先,他们必须学会通力合作。

Video
Format                         : HEVC
Format/Info                    : High Efficiency Video Coding
Format profile                 : Main 10 @ L5 @ High
Codec ID                       : V_MPEGH/ISO/HEVC
Duration                       : 1 h 56 min
Bit rate                       : 12.0 Mb/s
Width                          : 3 840 pixels
Height                         : 1 580 pixels
Display aspect ratio           : 2.40:1
Frame rate mode                : Constant
Frame rate                     : 23.976 (23976/1000) FPS
Color space                    : YUV
Chroma subsampling             : 4:2:0
Bit depth                      : 10 bits
Bits/(Pixel*Frame)             : 0.082
Stream size                    : 9.71 GiB (97%)
Color range                    : Limited
Color primaries                : BT.709
Transfer characteristics       : BT.709
Matrix coefficients            : BT.709

Audio
Format                         : AC-3
Format/Info                    : Audio Coding 3
Commercial name                : Dolby Digital
Codec ID                       : A_AC3
Duration                       : 1 h 55 min
Bit rate mode                  : Constant
Bit rate                       : 384 kb/s
Channel(s)                     : 6 channels
Channel layout                 : L R C LFE Ls Rs
Sampling rate                  : 48.0 kHz
Frame rate                     : 31.250 FPS (1536 SPF)
Compression mode               : Lossy
Stream size                    : 318 MiB (3%)
Service kind                   : Complete Main

截图




BT种子下载
梦幻天堂·龙网(www.LWgod.org).神秘海域.秘境探险.torrent (51.42 KB, 下载次数: 10066)

2746

主题

3万

帖子

7万

积分

九鼎龙王·坛主

偶系漂漂滴龙民

Rank: 46Rank: 46Rank: 46Rank: 46Rank: 46Rank: 46

积分
75482

航子大神勋章

 楼主| 发表于 2022-4-23 22:06:49 | 显示全部楼层
  1. 【龙网转发】【美国2022万众期待冒险巨制】【神秘海域】【WebDL-2160p.MKV】【中字】
复制代码

  1. 海报

  2. [img]http://img.longwangbt.com/-10-/04.23/s/00.jpg[/img]

  3. [img]http://img.longwangbt.com/-10-/04.23/s/01.jpg[/img]

  4. 译  名 神秘海域/秘境探险(港/台)/神秘海域:德雷克船长的宝藏
  5. 片  名 Uncharted
  6. 年  代 2022
  7. 国  家 美国
  8. 类  别 动作/冒险
  9. 语  言 英语/西班牙语
  10. 字  幕 中简/中繁/英语
  11. 评  分 6.3/10 from 40,912 users
  12. 链  接 [url=http://www.lwgod.org]https://movie.douban.com/subject/3822687[/url]
  13. 文件大小 10.0 GB
  14. 片  长 116 Min
  15. 导  演 鲁本·弗雷斯彻 Ruben Fleischer
  16. 主  演 汤姆·赫兰德 Tom Holland
  17.      马克·沃尔伯格 Mark Wahlberg
  18.      索菲娅·阿里 Sophia Ali
  19.      塔蒂·加布里埃 Tati Gabrielle
  20.      安东尼奥·班德拉斯 Antonio Banderas
  21.      史蒂芬·威丁顿 Steven Waddington
  22.      乔治娅·古德曼 Georgia Goodman
  23.      迪尔梅德·默塔 Diarmaid Murtagh
  24.      约瑟夫·巴德拉玛 Joseph Balderrama
  25.      阿拉娜·博登 Alana Boden
  26.      罗伯特‧马瑟 Robert Maaser

  27. 简介

  28.   足智多谋的内森·德雷克(汤姆·赫兰德 饰)和经验丰富的寻宝者维克多·苏利文(马克·沃尔伯格 饰)组成搭档,追寻费迪南·麦哲伦500年前遗失的宝藏。一开始,这似乎只是个简单的寻宝工作,但很快演变成了一场惊险刺激、横跨全球的竞赛。他们必须赶在冷酷无情的蒙卡达(安东尼奥·班德拉斯 饰)之前寻得宝藏。蒙卡达坚信他和他的家族才是宝藏的正当继承人。若内森和苏利文能破译线索,解开这世界上最古老的谜团,他们便能找到价值50亿美元的宝藏,甚至还可能找到内森失踪已久的哥哥……但首先,他们必须学会通力合作。

  29. [quote][size=2]Video
  30. Format                         : HEVC
  31. Format/Info                    : High Efficiency Video Coding
  32. Format profile                 : Main 10 @ L5 @ High
  33. Codec ID                       : V_MPEGH/ISO/HEVC
  34. Duration                       : 1 h 56 min
  35. Bit rate                       : 12.0 Mb/s
  36. Width                          : 3 840 pixels
  37. Height                         : 1 580 pixels
  38. Display aspect ratio           : 2.40:1
  39. Frame rate mode                : Constant
  40. Frame rate                     : 23.976 (23976/1000) FPS
  41. Color space                    : YUV
  42. Chroma subsampling             : 4:2:0
  43. Bit depth                      : 10 bits
  44. Bits/(Pixel*Frame)             : 0.082
  45. Stream size                    : 9.71 GiB (97%)
  46. Color range                    : Limited
  47. Color primaries                : BT.709
  48. Transfer characteristics       : BT.709
  49. Matrix coefficients            : BT.709

  50. Audio
  51. Format                         : AC-3
  52. Format/Info                    : Audio Coding 3
  53. Commercial name                : Dolby Digital
  54. Codec ID                       : A_AC3
  55. Duration                       : 1 h 55 min
  56. Bit rate mode                  : Constant
  57. Bit rate                       : 384 kb/s
  58. Channel(s)                     : 6 channels
  59. Channel layout                 : L R C LFE Ls Rs
  60. Sampling rate                  : 48.0 kHz
  61. Frame rate                     : 31.250 FPS (1536 SPF)
  62. Compression mode               : Lossy
  63. Stream size                    : 318 MiB (3%)
  64. Service kind                   : Complete Main[/size][/quote]
  65. 截图

  66. [img]http://img.longwangbt.com/-10-/04.23/s/02.jpg[/img]
复制代码

467

主题

1万

帖子

1万

积分

神界龙王

Rank: 30Rank: 30Rank: 30Rank: 30

积分
19747

龙网爱心勋章

发表于 2022-4-23 22:30:06 | 显示全部楼层
谢谢分享谢谢分享

0

主题

176

帖子

775

积分

龙的传人

Rank: 13Rank: 13Rank: 13

积分
775
发表于 2022-4-23 22:36:00 | 显示全部楼层
感谢航子 辛苦了

0

主题

322

帖子

581

积分

龙的传人

Rank: 13Rank: 13Rank: 13

积分
581
发表于 2022-4-23 22:51:19 | 显示全部楼层
6666666666666666666666666666

1

主题

1355

帖子

3678

积分

赤血神龙

Rank: 20Rank: 20Rank: 20Rank: 20

积分
3678
QQ
发表于 2022-4-23 22:54:57 | 显示全部楼层
tks for share.............

0

主题

8217

帖子

7948

积分

海龙王

Rank: 25Rank: 25Rank: 25Rank: 25Rank: 25

积分
7948
发表于 2022-4-23 22:58:45 | 显示全部楼层
第一时间买票到影院观看了,冲着蜘蛛侠、冲着沃尔伯格、冲着班达拉斯一众明星,以为是部惊险曲折精彩的寻宝影片,谁知失望了。
感谢航子分享!

0

主题

19

帖子

183

积分

升龙霸·VIP

Rank: 22Rank: 22Rank: 22Rank: 22

积分
183

龙网VIP·银牌

发表于 2022-4-23 23:00:13 | 显示全部楼层
感谢航子分享!

0

主题

48

帖子

731

积分

龙的传人

Rank: 13Rank: 13Rank: 13

积分
731
发表于 2022-4-23 23:34:50 | 显示全部楼层
终于更新了,顶顶顶顶顶顶顶+666

4

主题

511

帖子

2254

积分

赤血神龙

Rank: 20Rank: 20Rank: 20Rank: 20

积分
2254

龙网爱心勋章

QQ
发表于 2022-4-24 00:00:31 | 显示全部楼层
太大了体积
生活不容易

0

主题

203

帖子

2547

积分

赤血神龙

Rank: 20Rank: 20Rank: 20Rank: 20

积分
2547
发表于 2022-4-24 00:27:30 | 显示全部楼层
楼主辛苦,多谢分享。

0

主题

116

帖子

177

积分

龙之子

Rank: 8Rank: 8Rank: 8Rank: 8

积分
177
发表于 2022-4-24 01:01:38 | 显示全部楼层

感谢楼主分享!!!!

0

主题

351

帖子

881

积分

龙的传人

Rank: 13Rank: 13Rank: 13

积分
881
发表于 2022-4-24 07:45:47 | 显示全部楼层
非常感谢航子分享!!!

0

主题

1445

帖子

1906

积分

神龙

Rank: 15Rank: 15Rank: 15

积分
1906
发表于 2022-4-24 08:00:23 | 显示全部楼层
我的生活已离不开论坛,感谢发帖的朋友多年的陪伴!

0

主题

1910

帖子

2848

积分

赤血神龙

Rank: 20Rank: 20Rank: 20Rank: 20

积分
2848
发表于 2022-4-24 08:28:56 | 显示全部楼层
谢谢分享,感谢
您需要登录后才可以回帖 登录 | 立即注册

本版积分规则

小黑屋|梦幻天堂·龙网

GMT+8, 2022-7-5 14:10 , Processed in 0.280977 second(s), 29 queries , Gzip On.

Powered by Discuz! X3.2

© 2001-2013 Comsenz Inc.

快速回复 返回顶部 返回列表