梦幻天堂·龙网

 找回密码
 立即注册
查看: 13014|回复: 179

[最新电影龙网转发] 【龙网转发】【美国2022万众期待高分必看】【新蝙蝠侠】【WebDL-1080p.MKV】【中字】

  [复制链接]

2746

主题

3万

帖子

7万

积分

九鼎龙王·坛主

偶系漂漂滴龙民

Rank: 46Rank: 46Rank: 46Rank: 46Rank: 46Rank: 46

积分
75482

航子大神勋章

发表于 2022-4-22 22:08:24 | 显示全部楼层 |阅读模式
海报





译  名 新蝙蝠侠/蝙蝠侠(港/台)/重启版蝙蝠侠
片  名 The Batman
年  代 2022
国  家 美国
类  别 动作/悬疑/犯罪
语  言 英语
字  幕 中简/中繁/英语
评  分 8.2/10 from 373,423 users  Top 250 #204
链  接 https://www.imdb.com/title/tt1877830
文件大小 10.7 GB
片  长 176 Min
导  演 马特·里夫斯 Matt Reeves
主  演 罗伯特·帕丁森 Robert Pattinson
     佐伊·克罗维兹 Zoe Kravitz
     保罗·达诺 Paul Dano
     科林·法瑞尔 Colin Farrell
     杰弗里·怀特 Jeffrey Wright
     安迪·瑟金斯 Andy Serkis
     约翰·特托罗 John Turturro
     彼得·萨斯加德 Peter Sarsgaard
     巴里·基奥恩 Barry Keoghan
     杰米·劳森 Jayme Lawson
     吉尔·佩雷斯-亚伯拉罕 Gil Perez-Abraham

简介

  布鲁斯·韦恩(罗伯特·帕丁森 饰)化身蝙蝠侠于哥谭市行侠仗义两年后,罪犯皆闻风丧胆,他也因此深入接触到哥谭市的阴暗面。他潜行于哥谭市腐败的政要名流关系网中,身边仅有的几个值得信赖的盟友——管家阿尔弗雷德·潘尼沃斯(安迪·瑟金斯 饰)与詹姆斯·戈登警长(杰弗里·怀特 饰)。这位独行的“义警侠探”在哥谭市民心中已成为“复仇”二字最当仁不让的代名词。

Video
Format                         : HEVC
Format/Info                    : High Efficiency Video Coding
Format profile                 : Main 10 @ L4 @ High
Codec ID                       : V_MPEGH/ISO/HEVC
Duration                       : 2 h 56 min
Bit rate                       : 7 986 kb/s
Width                          : 1 920 pixels
Height                         : 1 080 pixels
Display aspect ratio           : 16:9
Frame rate mode                : Constant
Frame rate                     : 23.976 (24000/1001) FPS
Color space                    : YUV
Chroma subsampling             : 4:2:0 (Type 2)
Bit depth                      : 10 bits
Bits/(Pixel*Frame)             : 0.161
Stream size                    : 9.83 GiB (91%)
Color range                    : Limited
Color primaries                : BT.709
Transfer characteristics       : BT.709
Matrix coefficients            : BT.709

Audio
Format                         : E-AC-3 JOC
Format/Info                    : Enhanced AC-3 with Joint Object Coding
Commercial name                : Dolby Digital Plus with Dolby Atmos
Codec ID                       : A_EAC3
Duration                       : 2 h 56 min
Bit rate mode                  : Constant
Bit rate                       : 768 kb/s
Channel(s)                     : 6 channels
Channel layout                 : L R C LFE Ls Rs
Sampling rate                  : 48.0 kHz
Frame rate                     : 31.250 FPS (1536 SPF)
Compression mode               : Lossy
Stream size                    : 968 MiB (9%)
Service kind                   : Complete Main
Complexity index               : 16
Number of dynamic objects      : 15
Bed channel count              : 1 channel
Bed channel configuration      : LFE

截图




BT种子下载
梦幻天堂·龙网(www.LWgod.org).新蝙蝠侠.重启版蝙蝠侠.torrent (55.21 KB, 下载次数: 8469)

2746

主题

3万

帖子

7万

积分

九鼎龙王·坛主

偶系漂漂滴龙民

Rank: 46Rank: 46Rank: 46Rank: 46Rank: 46Rank: 46

积分
75482

航子大神勋章

 楼主| 发表于 2022-4-22 22:29:50 | 显示全部楼层
  1. 【龙网转发】【美国2022万众期待高分必看】【新蝙蝠侠】【WebDL-1080p.MKV】【中字】
复制代码

  1. 海报

  2. [img]http://img.longwangbt.com/-10-/04.22/x/00.jpg[/img]

  3. [img]http://img.longwangbt.com/-10-/04.22/x/01.jpg[/img]

  4. 译  名 新蝙蝠侠/蝙蝠侠(港/台)/重启版蝙蝠侠
  5. 片  名 The Batman
  6. 年  代 2022
  7. 国  家 美国
  8. 类  别 动作/悬疑/犯罪
  9. 语  言 英语
  10. 字  幕 中简/中繁/英语
  11. 评  分 [color=red]8.2/10 from 373,423 users  Top 250 #204[/color]
  12. 链  接 [url=http://www.lwgod.org]https://www.imdb.com/title/tt1877830[/url]
  13. 文件大小 10.7 GB
  14. 片  长 176 Min
  15. 导  演 马特·里夫斯 Matt Reeves
  16. 主  演 罗伯特·帕丁森 Robert Pattinson
  17.      佐伊·克罗维兹 Zoe Kravitz
  18.      保罗·达诺 Paul Dano
  19.      科林·法瑞尔 Colin Farrell
  20.      杰弗里·怀特 Jeffrey Wright
  21.      安迪·瑟金斯 Andy Serkis
  22.      约翰·特托罗 John Turturro
  23.      彼得·萨斯加德 Peter Sarsgaard
  24.      巴里·基奥恩 Barry Keoghan
  25.      杰米·劳森 Jayme Lawson
  26.      吉尔·佩雷斯-亚伯拉罕 Gil Perez-Abraham

  27. 简介

  28.   布鲁斯·韦恩(罗伯特·帕丁森 饰)化身蝙蝠侠于哥谭市行侠仗义两年后,罪犯皆闻风丧胆,他也因此深入接触到哥谭市的阴暗面。他潜行于哥谭市腐败的政要名流关系网中,身边仅有的几个值得信赖的盟友——管家阿尔弗雷德·潘尼沃斯(安迪·瑟金斯 饰)与詹姆斯·戈登警长(杰弗里·怀特 饰)。这位独行的“义警侠探”在哥谭市民心中已成为“复仇”二字最当仁不让的代名词。

  29. [quote][size=2]Video
  30. Format                         : HEVC
  31. Format/Info                    : High Efficiency Video Coding
  32. Format profile                 : Main 10 @ L4 @ High
  33. Codec ID                       : V_MPEGH/ISO/HEVC
  34. Duration                       : 2 h 56 min
  35. Bit rate                       : 7 986 kb/s
  36. Width                          : 1 920 pixels
  37. Height                         : 1 080 pixels
  38. Display aspect ratio           : 16:9
  39. Frame rate mode                : Constant
  40. Frame rate                     : 23.976 (24000/1001) FPS
  41. Color space                    : YUV
  42. Chroma subsampling             : 4:2:0 (Type 2)
  43. Bit depth                      : 10 bits
  44. Bits/(Pixel*Frame)             : 0.161
  45. Stream size                    : 9.83 GiB (91%)
  46. Color range                    : Limited
  47. Color primaries                : BT.709
  48. Transfer characteristics       : BT.709
  49. Matrix coefficients            : BT.709

  50. Audio
  51. Format                         : E-AC-3 JOC
  52. Format/Info                    : Enhanced AC-3 with Joint Object Coding
  53. Commercial name                : Dolby Digital Plus with Dolby Atmos
  54. Codec ID                       : A_EAC3
  55. Duration                       : 2 h 56 min
  56. Bit rate mode                  : Constant
  57. Bit rate                       : 768 kb/s
  58. Channel(s)                     : 6 channels
  59. Channel layout                 : L R C LFE Ls Rs
  60. Sampling rate                  : 48.0 kHz
  61. Frame rate                     : 31.250 FPS (1536 SPF)
  62. Compression mode               : Lossy
  63. Stream size                    : 968 MiB (9%)
  64. Service kind                   : Complete Main
  65. Complexity index               : 16
  66. Number of dynamic objects      : 15
  67. Bed channel count              : 1 channel
  68. Bed channel configuration      : LFE[/size][/quote]
  69. 截图

  70. [img]http://img.longwangbt.com/-10-/04.22/x/02.jpg[/img]
复制代码

3

主题

484

帖子

1928

积分

升龙霸·VIP

Rank: 22Rank: 22Rank: 22Rank: 22

积分
1928

龙网VIP·银牌

发表于 2022-4-22 22:38:41 | 显示全部楼层
感谢航子发片

4

主题

511

帖子

2254

积分

赤血神龙

Rank: 20Rank: 20Rank: 20Rank: 20

积分
2254

龙网爱心勋章

QQ
发表于 2022-4-22 22:48:48 | 显示全部楼层
黑暗的蝙蝠人
生活不容易

2

主题

967

帖子

2042

积分

升龙霸·VIP

Rank: 22Rank: 22Rank: 22Rank: 22

积分
2042

龙网VIP·银星龙网VIP·银牌

发表于 2022-4-22 23:03:45 | 显示全部楼层
航子辛苦

0

主题

238

帖子

992

积分

龙的传人

Rank: 13Rank: 13Rank: 13

积分
992
发表于 2022-4-22 23:05:45 | 显示全部楼层
感谢航子分享!!!

2

主题

1566

帖子

2783

积分

升龙霸·VIP

Rank: 22Rank: 22Rank: 22Rank: 22

积分
2783

龙网VIP·银牌

发表于 2022-4-22 23:07:25 | 显示全部楼层
谢谢分享

1

主题

1355

帖子

3678

积分

赤血神龙

Rank: 20Rank: 20Rank: 20Rank: 20

积分
3678
QQ
发表于 2022-4-22 23:08:50 | 显示全部楼层
必須支持。。。。。。。。。。。。

4

主题

495

帖子

2403

积分

升龙霸·VIP

Rank: 22Rank: 22Rank: 22Rank: 22

积分
2403

龙网VIP·银章

发表于 2022-4-22 23:08:56 | 显示全部楼层
谢谢航子分享

0

主题

7114

帖子

7335

积分

霸王龙·贵宾

狱血黑龙

Rank: 18Rank: 18

积分
7335
发表于 2022-4-23 00:51:15 | 显示全部楼层
感谢航子的好片分享
当你不再拥有的时候,你唯一可以做的,就是令自己不要忘记!

0

主题

2333

帖子

3714

积分

赤血神龙

Rank: 20Rank: 20Rank: 20Rank: 20

积分
3714
发表于 2022-4-23 00:59:54 | 显示全部楼层
感谢分享 下载收藏了

0

主题

47

帖子

879

积分

升龙霸·VIP

Rank: 22Rank: 22Rank: 22Rank: 22

积分
879

龙网VIP·银章

发表于 2022-4-23 07:13:18 | 显示全部楼层
来看咯. 感谢分享

1

主题

1756

帖子

4620

积分

赤血神龙

Rank: 20Rank: 20Rank: 20Rank: 20

积分
4620
发表于 2022-4-23 07:24:39 | 显示全部楼层
感謝航子分享精彩動作電影!!

0

主题

162

帖子

556

积分

龙的传人

Rank: 13Rank: 13Rank: 13

积分
556
发表于 2022-4-23 07:52:56 | 显示全部楼层
感谢航子的好片分享

7

主题

572

帖子

2658

积分

升龙霸·VIP

Rank: 22Rank: 22Rank: 22Rank: 22

积分
2658

龙网VIP·银牌龙网VIP·银章

发表于 2022-4-23 08:07:35 | 显示全部楼层
谢谢分享
您需要登录后才可以回帖 登录 | 立即注册

本版积分规则

小黑屋|梦幻天堂·龙网

GMT+8, 2022-7-5 15:23 , Processed in 0.270490 second(s), 29 queries , Gzip On.

Powered by Discuz! X3.2

© 2001-2013 Comsenz Inc.

快速回复 返回顶部 返回列表