梦幻天堂·龙网

 找回密码
 立即注册
查看: 435|回复: 3

[1080p] [欧美] [动作] [WEB-1080P] 一击/一次机会

[复制链接]

6984

主题

9100

帖子

1万

积分

神界龙王

Rank: 30Rank: 30Rank: 30Rank: 30

积分
19844

龙网爱心勋章

发表于 2021-11-10 10:26:44 | 显示全部楼层 |阅读模式


◎译  名 一击/一次机会
◎片  名 One Shot
◎年  代 2021
◎产  地 美国
◎类  别 动作 / 犯罪
◎语  言 英语
◎上映日期 2021-11-05(美国)
◎豆瓣评分 /10 from 0 users
◎豆瓣链接 https://movie.douban.com/subject/35382383/
◎导  演 詹姆斯·纳恩 James Nunn
◎主  演 斯科特·阿金斯 Scott Adkins
       阿什丽·格林尼 Ashley Greene
       瑞恩·菲利普 Ryan Phillippe

◎标  签 阿金斯 | 动作 | 美国 | 2021 | 美国电影 | 枪战 | 犯罪

◎简  介

  斯科特·阿金斯(《终极斗士4》)与导演詹姆斯·纳恩(《足球流氓3》《毁灭者》)即将合作新电影《一击》(暂译,One Shot)。讲述阿金斯饰演的海豹突击队长率领队员执行秘密任务,试图在一个处于CIA管控下的黑狱中转移一名囚犯。而任务执行当天却遭到了叛乱者的袭击。他们需要在想办法突围的同时营救目标人物。
  
  本片将采取一镜到底(One single continuous take)的形式完成,并计划于3月9日开始制作。

Video
ID                                       : 1
Format                                   : AVC
Format/Info                              : Advanced Video Codec
Format profile                           : [email protected]
Format settings                          : CABAC / 4 Ref Frames
Format settings, CABAC                   : Yes
Format settings, Reference frames        : 4 frames
Codec ID                                 : V_MPEG4/ISO/AVC
Duration                                 : 1 h 36 min
Bit rate                                 : 6 592 kb/s
Width                                    : 1 918 pixels
Height                                   : 960 pixels
Display aspect ratio                     : 1.998
Frame rate mode                          : Constant
Frame rate                               : 23.976 (24000/1001/189150) FPS
Color space                              : YUV
Chroma subsampling                       : 4:2:0
Bit depth                                : 8 bits
Scan type                                : Progressive
Bits/(Pixel*Frame)                       : 0.149
Stream size                              : 4.45 GiB (94%)
Language                                 : English
Default                                  : Yes
Forced                                   : No
Color range                              : Limited
Color primaries                          : BT.709
Transfer characteristics                 : BT.709
Matrix coefficients                      : BT.709

Audio
ID                                       : 2
Format                                   : AC-3
Format/Info                              : Audio Coding 3
Commercial name                          : Dolby Digital
Codec ID                                 : A_AC3
Duration                                 : 1 h 36 min
Bit rate mode                            : Constant
Bit rate                                 : 384 kb/s
Channel(s)                               : 6 channels
Channel layout                           : L R C LFE Ls Rs
Sampling rate                            : 48.0 kHz
Frame rate                               : 31.250 FPS (1536 SPF)
Compression mode                         : Lossy
Stream size                              : 266 MiB (6%)
Title                                    : English
Language                                 : English
Service kind                             : Complete Main
Default                                  : Yes
Forced                                   : No

Text
ID                                       : 3
Format                                   : UTF-8
Codec ID                                 : S_TEXT/UTF8
Codec ID/Info                            : UTF-8 Plain Text
Duration                                 : 1 h 31 min
Bit rate                                 : 46 b/s
Count of elements                        : 1089
Stream size                              : 31.1 KiB (0%)
Language                                 : English
Default                                  : Yes
Forced                                   : No


本帖子中包含更多资源

您需要 登录 才可以下载或查看,没有帐号?立即注册

x

0

主题

2068

帖子

4043

积分

赤血神龙

Rank: 20Rank: 20Rank: 20Rank: 20

积分
4043
发表于 2021-11-12 15:39:35 | 显示全部楼层
谢谢楼主分享

0

主题

87

帖子

161

积分

龙之子

Rank: 8Rank: 8Rank: 8Rank: 8

积分
161
发表于 2021-11-15 20:47:06 | 显示全部楼层
谢谢楼主分享

1

主题

6219

帖子

8522

积分

升龙霸·VIP

Rank: 22Rank: 22Rank: 22Rank: 22

积分
8522

龙网VIP·银星龙网VIP·银徽龙网VIP·银牌

发表于 2021-11-20 10:34:47 | 显示全部楼层
感谢楼主分享
您需要登录后才可以回帖 登录 | 立即注册

本版积分规则

小黑屋|梦幻天堂·龙网

GMT+8, 2021-12-2 17:45 , Processed in 0.201252 second(s), 21 queries , Gzip On.

Powered by Discuz! X3.2

© 2001-2013 Comsenz Inc.

快速回复 返回顶部 返回列表