梦幻天堂·龙网

 找回密码
 立即注册
查看: 11760|回复: 127

[最新电影龙网转发] 【龙网转发】【2023】【93国际列车大劫案:莫斯科行动】【WebDL-2160p.MKV】【国语】

  [复制链接]

2816

主题

3万

帖子

7万

积分

九鼎龙王·坛主

偶系漂漂滴龙民

Rank: 46Rank: 46Rank: 46Rank: 46Rank: 46Rank: 46

积分
75796

航子大神勋章

发表于 2023-11-24 19:45:14 | 显示全部楼层 |阅读模式
海报





译  名 93国际列车大劫案:莫斯科行动/莫斯科行动/莫斯科任务/莫斯科大劫案
片  名 Moscow Mission
年  代 2023
国  家 中国
类  别 动作/犯罪/剧情
语  言 汉语普通话/俄语/粤语
字  幕 中英硬字幕
评  分 6.6/10 from 119,207 users
链  接 https://movie.douban.com/subject/10810266
文件大小 3.70 GB
片  长 128 Min
导  演 邱礼涛 Herman Yau
主  演 张涵予 Hanyu Zhang
     刘德华 Andy Lau
     黄轩 Xuan Huang
     文咏珊 Janice Man
     谷嘉诚 Jason Gu
     赵炳锐 Mingyue Zhao
     白那日苏 Narisu Bai
     张本煜 Benyu Zhang
     尚语贤 Yuxian Shang
     徐小飒 Xiaosa Xu
     韩秋池 Qiuchi Han

简介

  20世纪90年代初,东西方冷战以苏联解体落下帷幕。新建立的俄罗斯承前朝之弊,经济全面崩溃。而产业结构极度不平衡,又导致该国轻工业产品处于极度匮乏的局面。值此纷乱之际,改革开放之初的中国,一群头脑灵光的国人摇身一变化作“国际倒爷”。他们乘坐从北京开往莫斯科的K3次国际专列,带着中国生产的商品开启了淘金之旅。然而,对于他们来说,这很有可能是一场死亡之旅。以苗青山(黄轩 饰)为首的悍匪集团同样登上这趟列车,对乘客实施了惨无人道的抢劫和强暴,气焰极度嚣张。中国警察崔振海(张涵予 饰)临危受命,乔装打扮带领公安小队登上刀光血影的K3次列车……

  影片根据中国第一桩跨境追捕真实案件改编。

Video
Format                         : HEVC
Format/Info                    : High Efficiency Video Coding
Format profile                 : Main@L5@Main
Codec ID                       : V_MPEGH/ISO/HEVC
Duration                       : 2 h 8 min
Bit rate                       : 3 875 kb/s
Width                          : 3 840 pixels
Height                         : 1 616 pixels
Display aspect ratio           : 2.40:1
Frame rate mode                : Constant
Frame rate                     : 24.000 FPS
Color space                    : YUV
Chroma subsampling             : 4:2:0
Bit depth                      : 8 bits
Bits/(Pixel*Frame)             : 0.026
Stream size                    : 3.48 GiB (94%)

Audio
Format                         : E-AC-3
Format/Info                    : Enhanced AC-3
Commercial name                : Dolby Digital Plus
Codec ID                       : A_EAC3
Duration                       : 2 h 8 min
Bit rate mode                  : Constant
Bit rate                       : 256 kb/s
Channel(s)                     : 6 channels
Channel layout                 : L R C LFE Ls Rs
Sampling rate                  : 48.0 kHz
Frame rate                     : 31.250 FPS (1536 SPF)
Compression mode               : Lossy
Stream size                    : 235 MiB (6%)
Language                       : Chinese
Service kind                   : Complete Main

截图




BT种子下载
梦幻天堂·龙网(www.LWgod.org).93国际列车大劫案:莫斯科行动.torrent (75.32 KB, 下载次数: 7556)

19

主题

4万

帖子

6万

积分

天地独尊龙王

梦幻天使

Rank: 33Rank: 33Rank: 33Rank: 33Rank: 33

积分
62427
发表于 2023-11-24 20:17:02 | 显示全部楼层
非常感谢航子分享精彩影片!

0

主题

1万

帖子

1万

积分

神界龙王

Rank: 30Rank: 30Rank: 30Rank: 30

积分
15722
QQ
发表于 2023-11-24 20:44:38 | 显示全部楼层
感谢航子分享
一切终会过去

0

主题

139

帖子

912

积分

龙的传人

Rank: 13Rank: 13Rank: 13

积分
912
发表于 2023-11-24 20:58:08 | 显示全部楼层
感谢航子的分享!

1

主题

329

帖子

887

积分

龙的传人

Rank: 13Rank: 13Rank: 13

积分
887
发表于 2023-11-24 21:35:20 | 显示全部楼层

感谢航子分享

779

主题

9408

帖子

1万

积分

神界龙王

Rank: 30Rank: 30Rank: 30Rank: 30

积分
13033
发表于 2023-11-24 21:38:35 | 显示全部楼层
感谢航子分享

1

主题

696

帖子

2401

积分

赤血神龙

Rank: 20Rank: 20Rank: 20Rank: 20

积分
2401
QQ
发表于 2023-11-24 21:42:36 | 显示全部楼层
这个是不是翻拍的

1

主题

167

帖子

1854

积分

神龙

Rank: 15Rank: 15Rank: 15

积分
1854
发表于 2023-11-24 21:44:53 | 显示全部楼层
多謝航子,但種子好像有問題,不能下載

点评

具体提示什么呢?我用BitSpirit和uTorrent测试没问题  发表于 2023-11-24 22:17

1

主题

456

帖子

1198

积分

神龙

Rank: 15Rank: 15Rank: 15

积分
1198
发表于 2023-11-24 21:46:36 | 显示全部楼层
谢谢分享,挺不错的

1

主题

1万

帖子

2万

积分

神界龙王

Rank: 30Rank: 30Rank: 30Rank: 30

积分
21833

龙网爱心勋章

发表于 2023-11-24 22:14:06 | 显示全部楼层
航子美女的大片
笑看红尘

0

主题

541

帖子

3051

积分

赤血神龙

Rank: 20Rank: 20Rank: 20Rank: 20

积分
3051
发表于 2023-11-24 22:19:07 | 显示全部楼层
感谢航子分享

0

主题

781

帖子

1962

积分

神龙

Rank: 15Rank: 15Rank: 15

积分
1962
发表于 2023-11-24 22:28:40 | 显示全部楼层
感谢分享!辛苦了!

1

主题

167

帖子

1854

积分

神龙

Rank: 15Rank: 15Rank: 15

积分
1854
发表于 2023-11-24 22:52:32 | 显示全部楼层
Kenneth713 发表于 2023-11-24 21:44
多謝航子,但種子好像有問題,不能下載

我用的是Bitcomet ,我最後終於弄好了,已能下載,十分抱歉麻煩妳了,

1

主题

1424

帖子

4308

积分

赤血神龙

Rank: 20Rank: 20Rank: 20Rank: 20

积分
4308
QQ
发表于 2023-11-24 23:09:23 | 显示全部楼层
tks for share.............

1

主题

147

帖子

259

积分

龙少爷

Rank: 10Rank: 10

积分
259
发表于 2023-11-24 23:18:37 | 显示全部楼层
感谢航子分享
您需要登录后才可以回帖 登录 | 立即注册

本版积分规则

小黑屋|梦幻天堂·龙网

GMT+8, 2024-3-1 19:22 , Processed in 0.225925 second(s), 28 queries , Gzip On.

Powered by Discuz! X3.2

© 2001-2013 Comsenz Inc.

快速回复 返回顶部 返回列表