梦幻天堂·龙网

 找回密码
 立即注册
查看: 20038|回复: 124

[最新电影龙网转发] 【龙网转发】【印度2022超火爆动作超燃必看神作】【RRR】【WebDL-1080p.MKV】【中字】

  [复制链接]

2746

主题

3万

帖子

7万

积分

九鼎龙王·坛主

偶系漂漂滴龙民

Rank: 46Rank: 46Rank: 46Rank: 46Rank: 46Rank: 46

积分
75482

航子大神勋章

发表于 2022-6-7 21:52:17 | 显示全部楼层 |阅读模式
海报





译  名 RRR/双雄起义(台)
片  名 Rise Roar Revolt
年  代 2022
国  家 印度
类  别 动作/剧情
语  言 泰卢固语/印地语/泰米尔语/马拉雅拉姆语/卡纳达语
字  幕 中简/中繁/英文
评  分 8.1/10 from 73,919 users
链  接 https://www.imdb.com/title/tt8178634
文件大小 7.97 GB
片  长 185 Min
导  演 S·S·拉贾穆里 S.S. Rajamouli
主  演 小老虎 Junior N.T.R.
     拉姆·查兰·特哈 Ram Charan Teja
     阿贾耶·德乌干 Ajay Devgan
     阿莉雅·布哈特 Alia Bhatt
     施芮娅·萨兰 Shriya Saran
     雷·史蒂文森 Ray Stevenson
     艾莉森·杜迪 Alison Doody
     Makrand Deshpande
     马克·班宁顿 Mark Bennington
     Ahmareen Anjum
     爱德华·布海克 Eduard Buhac

简介

  1920年,英国总督斯科特和他的妻子凯瑟琳访问阿迪拉巴德的一个部落,并强行带走了部落里歌唱天赋异禀的小女孩玛莉,部落的保护者比姆(小老虎 饰)为了救回玛莉,伪装成穆斯林。斯科特得知消息后,总督府的底层卫兵拉朱(拉姆·查兰·特哈 饰)为了升职也同时为了完成他父亲遗愿和他对部落承诺,主动请愿自己可以将比姆逮捕。

  比姆和拉朱因共同拯救了一个差点葬身火海的小男孩而巧遇,他们并不认识对方,然而两人也隐藏了自己的真实身份,相互联系,成为挚友。拉朱在一次调查中发现自己的挚友就是总督要逮捕的比姆,他一边是承载了父亲的遗愿和整个部落的承诺,一边是自己的挚友,他该如何抉择……

Video
Format                         : AVC
Format/Info                    : Advanced Video Codec
Format profile                 : Main@L4
Format settings                : CABAC / 3 Ref Frames
Format settings, CABAC         : Yes
Format settings, Reference fra : 3 frames
Codec ID                       : V_MPEG4/ISO/AVC
Duration                       : 3 h 5 min
Bit rate mode                  : Variable
Bit rate                       : 5 386 kb/s
Nominal bit rate               : 2 925 kb/s
Maximum bit rate               : 11.2 Mb/s
Width                          : 1 920 pixels
Height                         : 1 080 pixels
Display aspect ratio           : 16:9
Frame rate mode                : Constant
Frame rate                     : 24.000 FPS
Color space                    : YUV
Chroma subsampling             : 4:2:0
Bit depth                      : 8 bits
Scan type                      : Progressive
Bits/(Pixel*Frame)             : 0.108
Stream size                    : 6.97 GiB (87%)

Audio
Format                         : E-AC-3 JOC
Format/Info                    : Enhanced AC-3 with Joint Object Coding
Commercial name                : Dolby Digital Plus with Dolby Atmos
Codec ID                       : A_EAC3
Duration                       : 3 h 5 min
Bit rate mode                  : Constant
Bit rate                       : 768 kb/s
Channel(s)                     : 6 channels
Channel layout                 : L R C LFE Ls Rs
Sampling rate                  : 48.0 kHz
Frame rate                     : 31.250 FPS (1536 SPF)
Compression mode               : Lossy
Stream size                    : 1 017 MiB (12%)
Service kind                   : Complete Main
Complexity index               : 16
Number of dynamic objects      : 15
Bed channel count              : 1 channel
Bed channel configuration      : LFE

截图




BT种子下载
梦幻天堂·龙网(www.LWgod.org).RRR.双雄起义.torrent (41.1 KB, 下载次数: 5966)

2746

主题

3万

帖子

7万

积分

九鼎龙王·坛主

偶系漂漂滴龙民

Rank: 46Rank: 46Rank: 46Rank: 46Rank: 46Rank: 46

积分
75482

航子大神勋章

 楼主| 发表于 2022-6-7 22:19:34 | 显示全部楼层
  1. 【龙网转发】【印度2022超火爆动作超燃必看神作】【RRR】【WebDL-1080p.MKV】【中字】
复制代码

  1. 海报

  2. [img]http://img.longwangbt.com/-10-/06.07/r/00.jpg[/img]

  3. [img]http://img.longwangbt.com/-10-/06.07/r/01.jpg[/img]

  4. 译  名 RRR/双雄起义(台)
  5. 片  名 Rise Roar Revolt
  6. 年  代 2022
  7. 国  家 印度
  8. 类  别 动作/剧情
  9. 语  言 泰卢固语/印地语/泰米尔语/马拉雅拉姆语/卡纳达语
  10. 字  幕 中简/中繁/英文
  11. 评  分 [color=red]8.1/10 from 73,919 users[/color]
  12. 链  接 [url=http://www.lwgod.org]https://www.imdb.com/title/tt8178634[/url]
  13. 文件大小 7.97 GB
  14. 片  长 185 Min
  15. 导  演 S·S·拉贾穆里 S.S. Rajamouli
  16. 主  演 小老虎 Junior N.T.R.
  17.      拉姆·查兰·特哈 Ram Charan Teja
  18.      阿贾耶·德乌干 Ajay Devgan
  19.      阿莉雅·布哈特 Alia Bhatt
  20.      施芮娅·萨兰 Shriya Saran
  21.      雷·史蒂文森 Ray Stevenson
  22.      艾莉森·杜迪 Alison Doody
  23.      Makrand Deshpande
  24.      马克·班宁顿 Mark Bennington
  25.      Ahmareen Anjum
  26.      爱德华·布海克 Eduard Buhac

  27. 简介

  28.   1920年,英国总督斯科特和他的妻子凯瑟琳访问阿迪拉巴德的一个部落,并强行带走了部落里歌唱天赋异禀的小女孩玛莉,部落的保护者比姆(小老虎 饰)为了救回玛莉,伪装成穆斯林。斯科特得知消息后,总督府的底层卫兵拉朱(拉姆·查兰·特哈 饰)为了升职也同时为了完成他父亲遗愿和他对部落承诺,主动请愿自己可以将比姆逮捕。

  29.   比姆和拉朱因共同拯救了一个差点葬身火海的小男孩而巧遇,他们并不认识对方,然而两人也隐藏了自己的真实身份,相互联系,成为挚友。拉朱在一次调查中发现自己的挚友就是总督要逮捕的比姆,他一边是承载了父亲的遗愿和整个部落的承诺,一边是自己的挚友,他该如何抉择……

  30. [quote][size=2]Video
  31. Format                         : AVC
  32. Format/Info                    : Advanced Video Codec
  33. Format profile                 : Main@L4
  34. Format settings                : CABAC / 3 Ref Frames
  35. Format settings, CABAC         : Yes
  36. Format settings, Reference fra : 3 frames
  37. Codec ID                       : V_MPEG4/ISO/AVC
  38. Duration                       : 3 h 5 min
  39. Bit rate mode                  : Variable
  40. Bit rate                       : 5 386 kb/s
  41. Nominal bit rate               : 2 925 kb/s
  42. Maximum bit rate               : 11.2 Mb/s
  43. Width                          : 1 920 pixels
  44. Height                         : 1 080 pixels
  45. Display aspect ratio           : 16:9
  46. Frame rate mode                : Constant
  47. Frame rate                     : 24.000 FPS
  48. Color space                    : YUV
  49. Chroma subsampling             : 4:2:0
  50. Bit depth                      : 8 bits
  51. Scan type                      : Progressive
  52. Bits/(Pixel*Frame)             : 0.108
  53. Stream size                    : 6.97 GiB (87%)

  54. Audio
  55. Format                         : E-AC-3 JOC
  56. Format/Info                    : Enhanced AC-3 with Joint Object Coding
  57. Commercial name                : Dolby Digital Plus with Dolby Atmos
  58. Codec ID                       : A_EAC3
  59. Duration                       : 3 h 5 min
  60. Bit rate mode                  : Constant
  61. Bit rate                       : 768 kb/s
  62. Channel(s)                     : 6 channels
  63. Channel layout                 : L R C LFE Ls Rs
  64. Sampling rate                  : 48.0 kHz
  65. Frame rate                     : 31.250 FPS (1536 SPF)
  66. Compression mode               : Lossy
  67. Stream size                    : 1 017 MiB (12%)
  68. Service kind                   : Complete Main
  69. Complexity index               : 16
  70. Number of dynamic objects      : 15
  71. Bed channel count              : 1 channel
  72. Bed channel configuration      : LFE[/size][/quote]
  73. 截图

  74. [img]http://img.longwangbt.com/-10-/06.07/r/02.jpg[/img]
复制代码

0

主题

1

帖子

169

积分

龙之子

Rank: 8Rank: 8Rank: 8Rank: 8

积分
169
发表于 2022-6-7 22:43:51 | 显示全部楼层
谢谢航子分享

1

主题

1355

帖子

3678

积分

赤血神龙

Rank: 20Rank: 20Rank: 20Rank: 20

积分
3678
QQ
发表于 2022-6-7 23:08:10 | 显示全部楼层
tks  for  share................

0

主题

203

帖子

2547

积分

赤血神龙

Rank: 20Rank: 20Rank: 20Rank: 20

积分
2547
发表于 2022-6-7 23:10:54 | 显示全部楼层
楼主辛苦,多谢分享。

0

主题

3961

帖子

5561

积分

海龙王

Rank: 25Rank: 25Rank: 25Rank: 25Rank: 25

积分
5561
发表于 2022-6-8 00:07:20 | 显示全部楼层
感谢航子的分享

0

主题

170

帖子

2083

积分

赤血神龙

Rank: 20Rank: 20Rank: 20Rank: 20

积分
2083
发表于 2022-6-8 00:18:15 | 显示全部楼层
感谢航子辛苦发片~!

0

主题

2183

帖子

4055

积分

赤血神龙

Rank: 20Rank: 20Rank: 20Rank: 20

积分
4055
QQ
发表于 2022-6-8 03:40:00 | 显示全部楼层
感谢航子分享
一切终会过去

0

主题

225

帖子

1044

积分

神龙

Rank: 15Rank: 15Rank: 15

积分
1044
发表于 2022-6-8 07:39:35 | 显示全部楼层
爱生活,爱分享,所到之处皆阳光!
总有看不完的电影,所以永远忘不了那个给你分享电影的人!

4

主题

275

帖子

1169

积分

神龙

Rank: 15Rank: 15Rank: 15

积分
1169
发表于 2022-6-8 08:08:54 | 显示全部楼层
又长又臭印度片,嚓嚓嚓~~3个钟,哈哈~~

1

主题

76

帖子

499

积分

龙少爷

Rank: 10Rank: 10

积分
499
发表于 2022-6-8 08:27:18 | 显示全部楼层
三个钟吗,厉害了

0

主题

137

帖子

186

积分

龙之子

Rank: 8Rank: 8Rank: 8Rank: 8

积分
186
发表于 2022-6-8 08:37:53 | 显示全部楼层
谢谢楼主分享

7

主题

572

帖子

2658

积分

升龙霸·VIP

Rank: 22Rank: 22Rank: 22Rank: 22

积分
2658

龙网VIP·银牌龙网VIP·银章

发表于 2022-6-8 09:08:23 | 显示全部楼层
谢谢分享

0

主题

878

帖子

2005

积分

赤血神龙

Rank: 20Rank: 20Rank: 20Rank: 20

积分
2005

龙网爱心勋章

发表于 2022-6-8 09:08:32 | 显示全部楼层
航子辛苦…….

1

主题

156

帖子

1359

积分

神龙

Rank: 15Rank: 15Rank: 15

积分
1359
发表于 2022-6-8 09:34:07 | 显示全部楼层
感谢分享。。。
您需要登录后才可以回帖 登录 | 立即注册

本版积分规则

小黑屋|梦幻天堂·龙网

GMT+8, 2022-7-5 14:55 , Processed in 0.249250 second(s), 27 queries , Gzip On.

Powered by Discuz! X3.2

© 2001-2013 Comsenz Inc.

快速回复 返回顶部 返回列表