梦幻天堂·龙网

 找回密码
 立即注册
查看: 17563|回复: 110

[最新电影龙网转发] 【龙网转发】【美国2021高分科幻剧情好片】【天鹅挽歌】【WebDL-1080p.MKV】【中字】

  [复制链接]

2746

主题

3万

帖子

7万

积分

九鼎龙王·坛主

偶系漂漂滴龙民

Rank: 46Rank: 46Rank: 46Rank: 46Rank: 46Rank: 46

积分
75482

航子大神勋章

发表于 2022-5-10 17:18:34 | 显示全部楼层 |阅读模式
海报



译  名 天鹅挽歌/天鹅之歌/最后绝唱
片  名 Swan Song
年  代 2021
国  家 美国
类  别 科幻/剧情
语  言 英语
字  幕 中简/中繁/英文
评  分 8.0/10 from 28,196 users
链  接 https://movie.douban.com/subject/35258381
文件大小 8.47 GB
片  长 112 Min
导  演 本杰明·克利里 Benjamin Cleary
主  演 马赫沙拉·阿里 Mahershala Ali
     娜奥米·哈里斯 Naomie Harris
     格伦·克洛斯 Glenn Close
     奥卡菲娜 Awkwafina
     亚当·比奇 Adam Beach
     李·肖顿 Lee Shorten
     戴克斯·雷伊 Dax Rey
     卢克·卡米莱 Luke Camilleri
     尼亚切·海邓迪 Nyasha Hatendi
     杰瑞·蒂纳科 JayR Tinaco

简介

  在近未来,彼时科技愈加发达。人类自身变成人工智能般的存在,是行走的“支付宝”、“录音设备”、“摄影机”。卡梅隆(马赫沙拉·阿里 饰)在列车上用机器人贩售机买零食,只需口头确认订单,就自动扣款,不需要掏出支付页面或者识别人脸。肉体取代传统的电子设备,敲敲手指关节,便能操作各种屏幕。科技把人变得越来越像“机器”,反之,那些人造生命体和人工智能却变得越来越真实完善,两者之间的界限变得模糊而危险。卡梅隆就面临着这样的选择,要不要让人造生命体来取代自己,卡梅隆拥有一个幸福的三口之家,他与妻子波比(娜奥米·哈里斯 饰)是真正的灵魂伴侣,互为彼此的精神支柱。但是,他却身患绝症,将不久于人世。波比过去经历几次亲人的逝去,卡梅隆陪伴她度过那些痛苦的时光,难以想象她又该如何面对自己的死亡。

  于是,卡梅隆向波比隐瞒自己的病情,找到一家克隆机构,试图寻找让克隆人替自己陪伴妻子的可行性。卡梅隆一开始的态度是迟疑的。但当他看到,从外在的样貌,到内在的分子结构,都和自己一模一样的克隆人杰克(马赫沙拉·阿里 饰)的时候,他直接退却了。卡梅隆越是抗拒,越证明克隆技术的成功。正因为杰克和他毫无分别,卡梅隆才会产生“恐怖谷效应”,害怕自己的存在不再独特与真实。对于克隆机构来说,卡梅隆这样的潜在客户非常重要,他们研发出顶尖的技术,接下来就是让大众接受克隆人的时代到来。于是晓之以情,动之以理,试图让他慢慢理解克隆技术并不可怕。研究人员带卡梅隆拜访一位已经融入到现实生活中的克隆人凯特(奥卡菲娜 饰),同样来自重症患者。她已经通过测验,被删去自己是克隆人的记忆,甚至患者的所有亲友都没有发现她是克隆体。

Video
Format                         : AVC
Format/Info                    : Advanced Video Codec
Format profile                 : High @ L4
Format settings                : CABAC / 5 Ref Frames
Format settings, CABAC         : Yes
Format settings, Reference fra : 5 frames
Codec ID                       : V_MPEG4/ISO/AVC
Duration                       : 1 h 51 min
Bit rate                       : 10.1 Mb/s
Width                          : 1 918 pixels
Height                         : 802 pixels
Display aspect ratio           : 2.40:1
Frame rate mode                : Constant
Frame rate                     : 23.976 (24000/1001) FPS
Color space                    : YUV
Chroma subsampling             : 4:2:0
Bit depth                      : 8 bits
Scan type                      : Progressive
Bits/(Pixel*Frame)             : 0.273
Stream size                    : 7.86 GiB (93%)
Color range                    : Limited
Color primaries                : BT.709
Transfer characteristics       : BT.709
Matrix coefficients            : BT.709

Audio
Format                         : E-AC-3 JOC
Format/Info                    : Enhanced AC-3 with Joint Object Coding
Commercial name                : Dolby Digital Plus with Dolby Atmos
Codec ID                       : A_EAC3
Duration                       : 1 h 51 min
Bit rate mode                  : Constant
Bit rate                       : 768 kb/s
Channel(s)                     : 6 channels
Channel layout                 : L R C LFE Ls Rs
Sampling rate                  : 48.0 kHz
Frame rate                     : 31.250 FPS (1536 SPF)
Compression mode               : Lossy
Stream size                    : 615 MiB (7%)
Service kind                   : Complete Main
Complexity index               : 16
Number of dynamic objects      : 15
Bed channel count              : 1 channel
Bed channel configuration      : LFE

截图




BT种子下载
梦幻天堂·龙网(www.LWgod.org).天鹅挽歌.天鹅之歌.torrent (43.64 KB, 下载次数: 4357)

2746

主题

3万

帖子

7万

积分

九鼎龙王·坛主

偶系漂漂滴龙民

Rank: 46Rank: 46Rank: 46Rank: 46Rank: 46Rank: 46

积分
75482

航子大神勋章

 楼主| 发表于 2022-5-10 18:52:07 | 显示全部楼层
  1. 【龙网转发】【美国2021高分科幻剧情好片】【天鹅挽歌】【WebDL-1080p.MKV】【中字】
复制代码

  1. 海报

  2. [img]http://img.longwangbt.com/-10-/05.10/t/00.jpg[/img]

  3. 译  名 天鹅挽歌/天鹅之歌/最后绝唱
  4. 片  名 Swan Song
  5. 年  代 2021
  6. 国  家 美国
  7. 类  别 科幻/剧情
  8. 语  言 英语
  9. 字  幕 中简/中繁/英文
  10. 评  分 [color=red]8.0/10 from 28,196 users[/color]
  11. 链  接 [url=http://www.lwgod.org]https://movie.douban.com/subject/35258381[/url]
  12. 文件大小 8.47 GB
  13. 片  长 112 Min
  14. 导  演 本杰明·克利里 Benjamin Cleary
  15. 主  演 马赫沙拉·阿里 Mahershala Ali
  16.      娜奥米·哈里斯 Naomie Harris
  17.      格伦·克洛斯 Glenn Close
  18.      奥卡菲娜 Awkwafina
  19.      亚当·比奇 Adam Beach
  20.      李·肖顿 Lee Shorten
  21.      戴克斯·雷伊 Dax Rey
  22.      卢克·卡米莱 Luke Camilleri
  23.      尼亚切·海邓迪 Nyasha Hatendi
  24.      杰瑞·蒂纳科 JayR Tinaco

  25. 简介

  26.   在近未来,彼时科技愈加发达。人类自身变成人工智能般的存在,是行走的“支付宝”、“录音设备”、“摄影机”。卡梅隆(马赫沙拉·阿里 饰)在列车上用机器人贩售机买零食,只需口头确认订单,就自动扣款,不需要掏出支付页面或者识别人脸。肉体取代传统的电子设备,敲敲手指关节,便能操作各种屏幕。科技把人变得越来越像“机器”,反之,那些人造生命体和人工智能却变得越来越真实完善,两者之间的界限变得模糊而危险。卡梅隆就面临着这样的选择,要不要让人造生命体来取代自己,卡梅隆拥有一个幸福的三口之家,他与妻子波比(娜奥米·哈里斯 饰)是真正的灵魂伴侣,互为彼此的精神支柱。但是,他却身患绝症,将不久于人世。波比过去经历几次亲人的逝去,卡梅隆陪伴她度过那些痛苦的时光,难以想象她又该如何面对自己的死亡。

  27.   于是,卡梅隆向波比隐瞒自己的病情,找到一家克隆机构,试图寻找让克隆人替自己陪伴妻子的可行性。卡梅隆一开始的态度是迟疑的。但当他看到,从外在的样貌,到内在的分子结构,都和自己一模一样的克隆人杰克(马赫沙拉·阿里 饰)的时候,他直接退却了。卡梅隆越是抗拒,越证明克隆技术的成功。正因为杰克和他毫无分别,卡梅隆才会产生“恐怖谷效应”,害怕自己的存在不再独特与真实。对于克隆机构来说,卡梅隆这样的潜在客户非常重要,他们研发出顶尖的技术,接下来就是让大众接受克隆人的时代到来。于是晓之以情,动之以理,试图让他慢慢理解克隆技术并不可怕。研究人员带卡梅隆拜访一位已经融入到现实生活中的克隆人凯特(奥卡菲娜 饰),同样来自重症患者。她已经通过测验,被删去自己是克隆人的记忆,甚至患者的所有亲友都没有发现她是克隆体。

  28. [quote][size=2]Video
  29. Format                         : AVC
  30. Format/Info                    : Advanced Video Codec
  31. Format profile                 : High @ L4
  32. Format settings                : CABAC / 5 Ref Frames
  33. Format settings, CABAC         : Yes
  34. Format settings, Reference fra : 5 frames
  35. Codec ID                       : V_MPEG4/ISO/AVC
  36. Duration                       : 1 h 51 min
  37. Bit rate                       : 10.1 Mb/s
  38. Width                          : 1 918 pixels
  39. Height                         : 802 pixels
  40. Display aspect ratio           : 2.40:1
  41. Frame rate mode                : Constant
  42. Frame rate                     : 23.976 (24000/1001) FPS
  43. Color space                    : YUV
  44. Chroma subsampling             : 4:2:0
  45. Bit depth                      : 8 bits
  46. Scan type                      : Progressive
  47. Bits/(Pixel*Frame)             : 0.273
  48. Stream size                    : 7.86 GiB (93%)
  49. Color range                    : Limited
  50. Color primaries                : BT.709
  51. Transfer characteristics       : BT.709
  52. Matrix coefficients            : BT.709

  53. Audio
  54. Format                         : E-AC-3 JOC
  55. Format/Info                    : Enhanced AC-3 with Joint Object Coding
  56. Commercial name                : Dolby Digital Plus with Dolby Atmos
  57. Codec ID                       : A_EAC3
  58. Duration                       : 1 h 51 min
  59. Bit rate mode                  : Constant
  60. Bit rate                       : 768 kb/s
  61. Channel(s)                     : 6 channels
  62. Channel layout                 : L R C LFE Ls Rs
  63. Sampling rate                  : 48.0 kHz
  64. Frame rate                     : 31.250 FPS (1536 SPF)
  65. Compression mode               : Lossy
  66. Stream size                    : 615 MiB (7%)
  67. Service kind                   : Complete Main
  68. Complexity index               : 16
  69. Number of dynamic objects      : 15
  70. Bed channel count              : 1 channel
  71. Bed channel configuration      : LFE[/size][/quote]
  72. 截图

  73. [img]http://img.longwangbt.com/-10-/05.10/t/01.jpg[/img]
复制代码

1

主题

597

帖子

1688

积分

神龙

Rank: 15Rank: 15Rank: 15

积分
1688
发表于 2022-5-10 19:04:12 | 显示全部楼层
坐沙发 非常感谢航子分享,

1

主题

396

帖子

1015

积分

神龙

Rank: 15Rank: 15Rank: 15

积分
1015
发表于 2022-5-10 19:34:28 | 显示全部楼层
谢谢航子分享影片

0

主题

459

帖子

627

积分

龙的传人

Rank: 13Rank: 13Rank: 13

积分
627
发表于 2022-5-10 19:54:20 | 显示全部楼层
感谢航子分享!

0

主题

392

帖子

420

积分

升龙霸·VIP

Rank: 22Rank: 22Rank: 22Rank: 22

积分
420

赞助会员 LV1

发表于 2022-5-10 20:56:41 | 显示全部楼层
感谢航子分享。

0

主题

393

帖子

720

积分

龙的传人

Rank: 13Rank: 13Rank: 13

积分
720
发表于 2022-5-10 21:05:06 | 显示全部楼层
感谢航子分享!

0

主题

322

帖子

581

积分

龙的传人

Rank: 13Rank: 13Rank: 13

积分
581
发表于 2022-5-10 21:30:00 | 显示全部楼层
666666666666

0

主题

8217

帖子

7948

积分

海龙王

Rank: 25Rank: 25Rank: 25Rank: 25Rank: 25

积分
7948
发表于 2022-5-10 21:38:21 | 显示全部楼层
下来看看,感谢航子分享!

0

主题

17

帖子

107

积分

龙之子

Rank: 8Rank: 8Rank: 8Rank: 8

积分
107
发表于 2022-5-10 21:39:11 | 显示全部楼层
感谢航子的好片分享

1

主题

8135

帖子

1万

积分

神界龙王

Rank: 30Rank: 30Rank: 30Rank: 30

积分
11825
发表于 2022-5-10 22:17:58 | 显示全部楼层
Thank you very much !!!

0

主题

143

帖子

280

积分

龙少爷

Rank: 10Rank: 10

积分
280
发表于 2022-5-10 22:44:47 | 显示全部楼层
感谢楼主分享

0

主题

143

帖子

280

积分

龙少爷

Rank: 10Rank: 10

积分
280
发表于 2022-5-10 22:48:25 | 显示全部楼层
感谢楼主分享

0

主题

203

帖子

2547

积分

赤血神龙

Rank: 20Rank: 20Rank: 20Rank: 20

积分
2547
发表于 2022-5-10 23:02:19 | 显示全部楼层
楼主辛苦,多谢分享。

1

主题

1355

帖子

3678

积分

赤血神龙

Rank: 20Rank: 20Rank: 20Rank: 20

积分
3678
QQ
发表于 2022-5-10 23:10:34 | 显示全部楼层
tks for  share.............
您需要登录后才可以回帖 登录 | 立即注册

本版积分规则

小黑屋|梦幻天堂·龙网

GMT+8, 2022-7-5 14:46 , Processed in 0.229690 second(s), 27 queries , Gzip On.

Powered by Discuz! X3.2

© 2001-2013 Comsenz Inc.

快速回复 返回顶部 返回列表