梦幻天堂·龙网

 找回密码
 立即注册
查看: 9563|回复: 97

[最新电影龙网转发] 【龙网转发】【张涵予范伟2021新动作战争】【铁道英雄】【WebDL-2160p.MKV】【国语】

[复制链接]

2746

主题

3万

帖子

7万

积分

九鼎龙王·坛主

偶系漂漂滴龙民

Rank: 46Rank: 46Rank: 46Rank: 46Rank: 46Rank: 46

积分
75482

航子大神勋章

发表于 2022-4-25 20:26:25 | 显示全部楼层 |阅读模式
海报





译  名 铁道英雄/铁道游击队1939/铁道队
片  名 Railway Heroes
年  代 2021
国  家 中国
类  别 动作/历史/战争/剧情
语  言 汉语普通话
字  幕 中英硬字幕
评  分 5.8/10 from 50,662 users
链  接 https://movie.douban.com/subject/35205446
文件大小 4.32 GB
片  长 123 Min
导  演 杨枫 Feng Yang
主  演 张涵予 Hanyu Zhang
     范伟 Wei Fan
     魏晨 Vision Wei
     周也 Ye Zhou
     俞灏明 Haoming Yu
     森博之 Hiroyuki Mori
     谭凯 Kai Tan
     杨皓宇 Haoyu Yang
     小么哥 Xiaomege
     张帆 Fan Zhang
     周政杰 Zhengjie Zhou

简介

  抗日战争时期,在日军肆虐横行的鲁南地区,临城枣庄英勇的“铁道队”穿铁轨、扒火车,截取武器和物资,用胆识和智慧与敌人斗争到底,殊死捍卫家园,为抗战胜利作出突出贡献。

  本片是根据发生在1935年-1945年间,洪振海、王志胜、杜季伟、刘金山等“铁道队”队员的真实事迹改编,将最大限度地还原“铁道队”的英雄故事。

Video
Format                         : HEVC
Format/Info                    : High Efficiency Video Coding
Format profile                 : Main 10 @ L5.1 @ Main
Codec ID                       : V_MPEGH/ISO/HEVC
Duration                       : 2 h 3 min
Bit rate                       : 4 618 kb/s
Width                          : 3 840 pixels
Height                         : 1 608 pixels
Display aspect ratio           : 2.40:1
Frame rate mode                : Constant
Frame rate                     : 60.000 FPS
Color space                    : YUV
Chroma subsampling             : 4:2:0
Bit depth                      : 10 bits
Bits/(Pixel*Frame)             : 0.012
Stream size                    : 3.99 GiB (92%)
Color range                    : Limited
Color primaries                : BT.709
Transfer characteristics       : BT.709
Matrix coefficients            : BT.709

Audio
Format                         : E-AC-3
Format/Info                    : Enhanced AC-3
Commercial name                : Dolby Digital Plus
Codec ID                       : A_EAC3
Duration                       : 2 h 3 min
Bit rate mode                  : Constant
Bit rate                       : 384 kb/s
Channel(s)                     : 6 channels
Channel layout                 : L R C LFE Ls Rs
Sampling rate                  : 48.0 kHz
Frame rate                     : 31.250 FPS (1536 SPF)
Compression mode               : Lossy
Stream size                    : 340 MiB (8%)
Service kind                   : Complete Main

截图




BT种子下载
梦幻天堂·龙网(www.LWgod.org).铁道英雄.铁道游击队1939.torrent (22.87 KB, 下载次数: 4663)

2746

主题

3万

帖子

7万

积分

九鼎龙王·坛主

偶系漂漂滴龙民

Rank: 46Rank: 46Rank: 46Rank: 46Rank: 46Rank: 46

积分
75482

航子大神勋章

 楼主| 发表于 2022-4-25 20:43:11 | 显示全部楼层
  1. 【龙网转发】【张涵予范伟2021新动作战争】【铁道英雄】【WebDL-2160p.MKV】【国语】
复制代码

  1. 海报

  2. [img]http://img.longwangbt.com/-10-/04.25/t/00.jpg[/img]

  3. [img]http://img.longwangbt.com/-10-/04.25/t/01.jpg[/img]

  4. 译  名 铁道英雄/铁道游击队1939/铁道队
  5. 片  名 Railway Heroes
  6. 年  代 2021
  7. 国  家 中国
  8. 类  别 动作/历史/战争/剧情
  9. 语  言 汉语普通话
  10. 字  幕 中英硬字幕
  11. 评  分 5.8/10 from 50,662 users
  12. 链  接 [url=http://www.lwgod.org]https://movie.douban.com/subject/35205446[/url]
  13. 文件大小 4.32 GB
  14. 片  长 123 Min
  15. 导  演 杨枫 Feng Yang
  16. 主  演 张涵予 Hanyu Zhang
  17.      范伟 Wei Fan
  18.      魏晨 Vision Wei
  19.      周也 Ye Zhou
  20.      俞灏明 Haoming Yu
  21.      森博之 Hiroyuki Mori
  22.      谭凯 Kai Tan
  23.      杨皓宇 Haoyu Yang
  24.      小么哥 Xiaomege
  25.      张帆 Fan Zhang
  26.      周政杰 Zhengjie Zhou

  27. 简介

  28.   抗日战争时期,在日军肆虐横行的鲁南地区,临城枣庄英勇的“铁道队”穿铁轨、扒火车,截取武器和物资,用胆识和智慧与敌人斗争到底,殊死捍卫家园,为抗战胜利作出突出贡献。

  29.   本片是根据发生在1935年-1945年间,洪振海、王志胜、杜季伟、刘金山等“铁道队”队员的真实事迹改编,将最大限度地还原“铁道队”的英雄故事。

  30. [quote][size=2]Video
  31. Format                         : HEVC
  32. Format/Info                    : High Efficiency Video Coding
  33. Format profile                 : Main 10 @ L5.1 @ Main
  34. Codec ID                       : V_MPEGH/ISO/HEVC
  35. Duration                       : 2 h 3 min
  36. Bit rate                       : 4 618 kb/s
  37. Width                          : 3 840 pixels
  38. Height                         : 1 608 pixels
  39. Display aspect ratio           : 2.40:1
  40. Frame rate mode                : Constant
  41. Frame rate                     : 60.000 FPS
  42. Color space                    : YUV
  43. Chroma subsampling             : 4:2:0
  44. Bit depth                      : 10 bits
  45. Bits/(Pixel*Frame)             : 0.012
  46. Stream size                    : 3.99 GiB (92%)
  47. Color range                    : Limited
  48. Color primaries                : BT.709
  49. Transfer characteristics       : BT.709
  50. Matrix coefficients            : BT.709

  51. Audio
  52. Format                         : E-AC-3
  53. Format/Info                    : Enhanced AC-3
  54. Commercial name                : Dolby Digital Plus
  55. Codec ID                       : A_EAC3
  56. Duration                       : 2 h 3 min
  57. Bit rate mode                  : Constant
  58. Bit rate                       : 384 kb/s
  59. Channel(s)                     : 6 channels
  60. Channel layout                 : L R C LFE Ls Rs
  61. Sampling rate                  : 48.0 kHz
  62. Frame rate                     : 31.250 FPS (1536 SPF)
  63. Compression mode               : Lossy
  64. Stream size                    : 340 MiB (8%)
  65. Service kind                   : Complete Main[/size][/quote]
  66. 截图

  67. [img]http://img.longwangbt.com/-10-/04.25/t/02.jpg[/img]
复制代码

0

主题

795

帖子

1188

积分

升龙霸·VIP

Rank: 22Rank: 22Rank: 22Rank: 22

积分
1188

赞助会员 LV1

发表于 2022-4-25 22:18:36 | 显示全部楼层
感谢楼主分享好东西

0

主题

203

帖子

2547

积分

赤血神龙

Rank: 20Rank: 20Rank: 20Rank: 20

积分
2547
发表于 2022-4-25 22:26:40 | 显示全部楼层
楼主辛苦,多谢分享。

0

主题

142

帖子

357

积分

龙少爷

Rank: 10Rank: 10

积分
357
发表于 2022-4-25 22:33:45 | 显示全部楼层
辛苦了,收藏欣赏了。

1

主题

8135

帖子

1万

积分

神界龙王

Rank: 30Rank: 30Rank: 30Rank: 30

积分
11825
发表于 2022-4-25 22:58:27 | 显示全部楼层

楼主辛苦,多谢分享

1

主题

1355

帖子

3678

积分

赤血神龙

Rank: 20Rank: 20Rank: 20Rank: 20

积分
3678
QQ
发表于 2022-4-25 23:33:51 | 显示全部楼层
tks for share...............

2

主题

967

帖子

2042

积分

升龙霸·VIP

Rank: 22Rank: 22Rank: 22Rank: 22

积分
2042

龙网VIP·银星龙网VIP·银牌

发表于 2022-4-26 00:42:26 | 显示全部楼层
感谢航子分享

7

主题

572

帖子

2658

积分

升龙霸·VIP

Rank: 22Rank: 22Rank: 22Rank: 22

积分
2658

龙网VIP·银牌龙网VIP·银章

发表于 2022-4-26 03:10:09 | 显示全部楼层
谢谢分享

0

主题

762

帖子

890

积分

龙的传人

Rank: 13Rank: 13Rank: 13

积分
890
发表于 2022-4-26 09:25:48 | 显示全部楼层
感谢航子分享

0

主题

878

帖子

2005

积分

赤血神龙

Rank: 20Rank: 20Rank: 20Rank: 20

积分
2005

龙网爱心勋章

发表于 2022-4-26 10:01:49 | 显示全部楼层
航子辛苦……..

0

主题

7

帖子

40

积分

泡泡龙

Rank: 5Rank: 5Rank: 5

积分
40
发表于 2022-4-26 10:04:16 | 显示全部楼层
楼主辛苦,多谢分享。

1

主题

1383

帖子

2241

积分

赤血神龙

Rank: 20Rank: 20Rank: 20Rank: 20

积分
2241
发表于 2022-4-26 10:54:07 | 显示全部楼层
感谢航子分享!

0

主题

2470

帖子

4355

积分

赤血神龙

Rank: 20Rank: 20Rank: 20Rank: 20

积分
4355
发表于 2022-4-26 11:03:05 | 显示全部楼层
楼主辛苦,多谢分享。

0

主题

322

帖子

581

积分

龙的传人

Rank: 13Rank: 13Rank: 13

积分
581
发表于 2022-4-26 11:07:22 | 显示全部楼层
弯弯2022版头七有资源了吗?
您需要登录后才可以回帖 登录 | 立即注册

本版积分规则

小黑屋|梦幻天堂·龙网

GMT+8, 2022-7-5 14:48 , Processed in 2.049932 second(s), 29 queries , Gzip On.

Powered by Discuz! X3.2

© 2001-2013 Comsenz Inc.

快速回复 返回顶部 返回列表