梦幻天堂·龙网

 找回密码
 立即注册
查看: 1259|回复: 3

[1080p] [欧美] [剧情] [WEB-1080P] 路易斯·韦恩的激情人生

[复制链接]

6984

主题

9100

帖子

1万

积分

神界龙王

Rank: 30Rank: 30Rank: 30Rank: 30

积分
19844

龙网爱心勋章

发表于 2021-11-10 10:29:51 | 显示全部楼层 |阅读模式


◎译  名 路易斯·韦恩的激情人生/Louis Wain/The Nine Lives Of Louis Wain/天才猫奴画家(台)/路易斯·韦恩/路易斯·韦恩的电气生活/路易斯韦恩的迷幻猫世界(港)
◎片  名 The Electrical Life of Louis Wain
◎年  代 2021
◎产  地 英国
◎类  别 剧情 / 传记 / 历史
◎语  言 英语
◎上映日期 2021-09-02(特柳赖德电影节) / 2021-10-22(美国) / 2021-11-05(美国网络)
◎豆瓣评分 /10 from 0 users
◎豆瓣链接 https://movie.douban.com/subject/34663377/
◎片  长 111分钟
◎导  演 福田知盛 Will Sharpe
◎编  剧 福田知盛 Will Sharpe / 西蒙·斯蒂芬森 Simon Stephenson
◎主  演 本尼迪克特·康伯巴奇 Benedict Cumberbatch
       克莱尔·芙伊 Claire Foy
       塔伊加·维迪提 Taika Waititi
       奥利维娅·科尔曼 Olivia Colman
       安德丽娅·赖斯伯勒 Andrea Riseborough
       托比·琼斯 Toby Jones
       索菲娅·迪·马蒂诺 Sophia Di Martino
       海莉·斯奎尔斯 Hayley Squires
       阿西姆·乔杜里 Asim Chaudhry
       尼克·凯夫 Nick Cave
       朱利安·巴拉特 Julian Barratt
       斯塔西·马汀 Stacy Martin
       詹米·德米特鲁 Jamie Demetriou
       艾米·卢·伍德 Aimee Lou Wood
       莎朗·鲁妮 Sharon Rooney
       阿迪勒·阿赫塔尔 Adeel Akhtar
       奥利维尔·里希特斯 Olivier Richters
       克里斯塔·克拉克 Crystal Clarke
       丹尼尔·里格比 Daniel Rigby
       安雅·麦肯纳-布鲁斯 Anya McKenna-Bruce
       斯图尔特·斯卡德莫尔 Stewart Scudamore
       印迪卡·沃森 Indica Watson
       玛吉·巴基尔 Maggie Bakir
       卡罗尔·斯蒂尔 Karol Steele
       Oliver Crocker Oliver Crocker

◎标  签 本尼迪克特·康伯巴奇 | 传记 | 英国 | 艺术 | 猫 | 2021 | 剧情 | 黑色幽默

◎简  介

  本尼迪克特·康伯巴奇和克莱尔·芙伊将主演新片《路易斯·韦恩》,聚焦英国插图画家路易斯·韦恩,8月10日开拍,福田知盛(《那些花儿》)执导。
  
  韦恩以画猫而闻名,曾担任英国猫协主席,他为将近一百多本儿童书籍画过插画,其画经常夸张地模仿人类的行为,嘲讽时代风潮。他晚年可能患有精神分裂症,某些心理学家认为可以从其作品看出端倪,不过也有一些专家对这一说法提出了异议。

Video
ID                                       : 1
Format                                   : AVC
Format/Info                              : Advanced Video Codec
Format profile                           : [email protected]
Format settings                          : CABAC / 4 Ref Frames
Format settings, CABAC                   : Yes
Format settings, Reference frames        : 4 frames
Codec ID                                 : V_MPEG4/ISO/AVC
Duration                                 : 1 h 51 min
Bit rate mode                            : Constant
Bit rate                                 : 7 146 kb/s
Nominal bit rate                         : 10 000 kb/s
Width                                    : 1 920 pixels
Height                                   : 1 080 pixels
Display aspect ratio                     : 16:9
Frame rate mode                          : Constant
Frame rate                               : 23.976 (24000/1001/189150) FPS
Color space                              : YUV
Chroma subsampling                       : 4:2:0
Bit depth                                : 8 bits
Scan type                                : Progressive
Bits/(Pixel*Frame)                       : 0.144
Stream size                              : 5.57 GiB (92%)
Default                                  : Yes
Forced                                   : No
Color range                              : Limited
Color primaries                          : BT.709
Transfer characteristics                 : BT.709
Matrix coefficients                      : BT.709

Audio
ID                                       : 2
Format                                   : E-AC-3
Format/Info                              : Enhanced AC-3
Commercial name                          : Dolby Digital Plus
Codec ID                                 : A_EAC3
Duration                                 : 1 h 51 min
Bit rate mode                            : Constant
Bit rate                                 : 640 kb/s
Channel(s)                               : 6 channels
Channel layout                           : L R C LFE Ls Rs
Sampling rate                            : 48.0 kHz
Frame rate                               : 31.250 FPS (1536 SPF)
Compression mode                         : Lossy
Stream size                              : 510 MiB (8%)
Title                                    : English
Language                                 : English
Service kind                             : Complete Main
Default                                  : No
Forced                                   : No

Text #1
ID                                       : 3
Format                                   : UTF-8
Codec ID                                 : S_TEXT/UTF8
Codec ID/Info                            : UTF-8 Plain Text
Duration                                 : 1 h 43 min
Bit rate                                 : 64 b/s
Count of elements                        : 1453
Stream size                              : 49.0 KiB (0%)
Title                                    : English
Language                                 : English
Default                                  : No
Forced                                   : No

Text #2
ID                                       : 4
Format                                   : UTF-8
Codec ID                                 : S_TEXT/UTF8
Codec ID/Info                            : UTF-8 Plain Text
Duration                                 : 1 h 43 min
Bit rate                                 : 68 b/s
Count of elements                        : 1544
Stream size                              : 52.0 KiB (0%)
Title                                    : English [SDH]
Language                                 : English
Default                                  : No
Forced                                   : No

Text #3
ID                                       : 5
Format                                   : UTF-8
Codec ID                                 : S_TEXT/UTF8
Codec ID/Info                            : UTF-8 Plain Text
Duration                                 : 1 h 39 min
Bit rate                                 : 0 b/s
Count of elements                        : 30
Stream size                              : 490 Bytes (0%)
Title                                    : English [Forced]
Language                                 : English
Default                                  : No
Forced                                   : Yes

Menu
00:00:00.000                             : en:Amazon Studios
00:00:22.000                             : en:Studio Logo
00:01:02.000                             : en:Scene 3
00:03:52.000                             : en:Scene 4
00:05:20.000                             : en:Scene 5
00:05:46.000                             : en:Scene 6
00:08:07.000                             : en:Scene 7
00:08:38.000                             : en:Scene 8
00:13:37.000                             : en:Scene 9
00:15:52.000                             : en:Scene 10
00:17:48.000                             : en:Scene 11
00:19:26.000                             : en:Scene 12
00:21:21.000                             : en:Scene 13
00:22:17.000                             : en:Scene 14
00:24:48.000                             : en:Scene 15
00:28:29.000                             : en:Scene 16
00:31:40.000                             : en:Scene 17
00:34:50.000                             : en:Scene 18
00:35:50.000                             : en:Scene 19
00:37:41.000                             : en:Scene 20
00:38:09.000                             : en:Scene 21
00:43:06.000                             : en:Scene 22
00:44:42.000                             : en:Scene 23
00:46:20.000                             : en:Scene 24
00:49:13.000                             : en:Scene 25
00:50:35.000                             : en:Scene 26
00:53:17.000                             : en:Scene 27
01:01:25.000                             : en:Scene 28
01:04:30.000                             : en:Scene 29
01:08:04.000                             : en:Scene 30
01:09:23.000                             : en:Scene 31
01:11:50.000                             : en:Scene 32
01:14:01.000                             : en:Scene 33
01:14:46.000                             : en:Scene 34
01:15:56.000                             : en:Scene 35
01:19:28.000                             : en:Scene 36
01:20:02.000                             : en:Scene 37
01:24:02.000                             : en:Scene 38
01:27:10.000                             : en:Scene 39
01:29:49.000                             : en:Scene 40
01:33:59.000                             : en:Scene 41
01:40:57.000                             : en:Scene 42
01:45:04.000                             : en:End Credits



本帖子中包含更多资源

您需要 登录 才可以下载或查看,没有帐号?立即注册

x

1

主题

6219

帖子

8522

积分

升龙霸·VIP

Rank: 22Rank: 22Rank: 22Rank: 22

积分
8522

龙网VIP·银星龙网VIP·银徽龙网VIP·银牌

发表于 2021-11-20 10:31:55 | 显示全部楼层
感谢楼主分享

0

主题

115

帖子

155

积分

龙之子

Rank: 8Rank: 8Rank: 8Rank: 8

积分
155
发表于 2021-11-24 17:42:43 | 显示全部楼层
新倾国倾城

0

主题

115

帖子

155

积分

龙之子

Rank: 8Rank: 8Rank: 8Rank: 8

积分
155
发表于 2021-11-24 17:48:27 | 显示全部楼层
情难自制情难自制
您需要登录后才可以回帖 登录 | 立即注册

本版积分规则

小黑屋|梦幻天堂·龙网

GMT+8, 2021-12-2 18:46 , Processed in 0.200032 second(s), 21 queries , Gzip On.

Powered by Discuz! X3.2

© 2001-2013 Comsenz Inc.

快速回复 返回顶部 返回列表