梦幻天堂·龙网

 找回密码
 立即注册
查看: 1048|回复: 4

[1080p] [其他] [剧情] [WEB-1080P] 迷情漩涡

[复制链接]

6984

主题

9100

帖子

1万

积分

神界龙王

Rank: 30Rank: 30Rank: 30Rank: 30

积分
19844

龙网爱心勋章

发表于 2021-11-10 10:28:16 | 显示全部楼层 |阅读模式


◎译  名 迷情漩涡
◎片  名 Maelstr?m
◎年  代 2000
◎产  地 加拿大
◎类  别 剧情
◎语  言 法语,英语,挪威语
◎上映日期 2000-09-15
◎豆瓣评分 6.6/10 from 355 users
◎豆瓣链接 https://movie.douban.com/subject/1302029/
◎片  长 87 分钟
◎导  演 丹尼斯·维伦纽瓦 Denis Villeneuve
◎编  剧 丹尼斯·维伦纽瓦 Denis Villeneuve
◎主  演 玛丽-乔西·克罗兹 Marie-Josée Croze
       斯蒂芬妮·摩根斯顿 Stephanie Morgenstern
       罗宾·奥贝尔 Robin Aubert
       西尔维·莫罗 Sylvie Moreau
       路易斯·奥利瓦 Luis Oliva
       皮埃尔·勒博 Pierre Lebeau
       Clermont Jolicoeur Clermont Jolicoeur
       Marc Gélinas Marc Gélinas
       Pierre Collin Pierre Collin
       鲍比·毕什罗 Bobby Beshro

◎标  签 加拿大 | 丹尼斯·维伦纽瓦 | DenisVilleneuve | 2000 | 剧情 | 加拿大电影 | Denis_Villeneuve | 电影

◎简  介

  碧碧安年轻貌美,身兼好几家服饰店的老板,不过故事开始的时候,她运气坏透了:不小心怀孕堕胎、做生意赔大钱、老哥对她摆臭脸色、有名又有钱的老妈从不出面慰问一下。碧碧安只好在酒吧里嗑药鬼混,随便找男人上床,生活除了空虚还是空虚。一天晚上,从酒吧里出来神智不清的碧碧安驾车回家,却撞倒了一名路人,她想都没想就快快把车开走,第二天清醒时看报纸才发现被她撞倒的男人已经死了。人衰的时候眼前似乎只有死路一条,碧碧安连人带车投河自尽,不过求生本能还是让她挣扎浮出水面。碧碧安去跟死者告别,遇上了死者的儿子,这位受害人家属不知杀父仇人就在眼前,还跟她搭讪,想请她喝咖啡,两人就这样一见锺情。碧碧安终于遇上真命天子了,可是残酷的真相教她怎么说得出口?

◎获奖情况

  第51届柏林国际电影节 ?(2001)
  费比西奖(国际影评人联盟奖)大观单元最佳影片 丹尼斯·维伦纽瓦

Video
ID                                       : 1
Format                                   : AVC
Format/Info                              : Advanced Video Codec
Format profile                           : [email protected]
Format settings                          : CABAC / 4 Ref Frames
Format settings, CABAC                   : Yes
Format settings, Reference frames        : 4 frames
Codec ID                                 : V_MPEG4/ISO/AVC
Duration                                 : 1 h 25 min
Bit rate mode                            : Constant
Bit rate                                 : 9 029 kb/s
Nominal bit rate                         : 10 000 kb/s
Width                                    : 1 920 pixels
Height                                   : 1 040 pixels
Display aspect ratio                     : 1.85:1
Frame rate mode                          : Constant
Frame rate                               : 24.000 FPS
Color space                              : YUV
Chroma subsampling                       : 4:2:0
Bit depth                                : 8 bits
Scan type                                : Progressive
Bits/(Pixel*Frame)                       : 0.188
Stream size                              : 5.42 GiB (98%)
Default                                  : Yes
Forced                                   : No
Color range                              : Limited
Color primaries                          : BT.709
Transfer characteristics                 : BT.709
Matrix coefficients                      : BT.709

Audio
ID                                       : 2
Format                                   : E-AC-3
Format/Info                              : Enhanced AC-3
Commercial name                          : Dolby Digital Plus
Codec ID                                 : A_EAC3
Duration                                 : 1 h 25 min
Bit rate mode                            : Constant
Bit rate                                 : 224 kb/s
Channel(s)                               : 2 channels
Channel layout                           : L R
Sampling rate                            : 48.0 kHz
Frame rate                               : 31.250 FPS (1536 SPF)
Compression mode                         : Lossy
Stream size                              : 138 MiB (2%)
Language                                 : French
Service kind                             : Complete Main
Default                                  : Yes
Forced                                   : No

Text
ID                                       : 3
Format                                   : UTF-8
Codec ID                                 : S_TEXT/UTF8
Codec ID/Info                            : UTF-8 Plain Text
Duration                                 : 1 h 25 min
Bit rate                                 : 20 b/s
Count of elements                        : 488
Stream size                              : 13.2 KiB (0%)
Language                                 : English
Default                                  : No
Forced                                   : No


本帖子中包含更多资源

您需要 登录 才可以下载或查看,没有帐号?立即注册

x

0

主题

2068

帖子

4043

积分

赤血神龙

Rank: 20Rank: 20Rank: 20Rank: 20

积分
4043
发表于 2021-11-12 15:37:57 | 显示全部楼层
谢谢楼主分享

1

主题

1195

帖子

1813

积分

神龙

Rank: 15Rank: 15Rank: 15

积分
1813
发表于 2021-11-16 15:56:41 | 显示全部楼层
谢谢楼主分享辛苦了

0

主题

13

帖子

270

积分

升龙霸·VIP

Rank: 22Rank: 22Rank: 22Rank: 22

积分
270

龙网VIP·银徽

发表于 2021-11-16 21:37:32 | 显示全部楼层

谢谢楼主分享好电影

1

主题

6219

帖子

8522

积分

升龙霸·VIP

Rank: 22Rank: 22Rank: 22Rank: 22

积分
8522

龙网VIP·银星龙网VIP·银徽龙网VIP·银牌

发表于 2021-11-20 10:33:33 | 显示全部楼层
感谢楼主分享
您需要登录后才可以回帖 登录 | 立即注册

本版积分规则

小黑屋|梦幻天堂·龙网

GMT+8, 2021-12-2 18:11 , Processed in 0.210340 second(s), 21 queries , Gzip On.

Powered by Discuz! X3.2

© 2001-2013 Comsenz Inc.

快速回复 返回顶部 返回列表