梦幻天堂·龙网

 找回密码
 立即注册
查看: 317|回复: 1

[1080p] [其他] [BD-1080P] 计划:两个人如何尝试骑行去越南

[复制链接]

6984

主题

9100

帖子

1万

积分

神界龙王

Rank: 30Rank: 30Rank: 30Rank: 30

积分
19844

龙网爱心勋章

发表于 2021-11-10 10:25:23 | 显示全部楼层 |阅读模式


◎译  名 计划:两个人如何尝试骑行去越南
◎片  名 Verplant - Wie zwei Typen versuchen, mit dem Rad nach Vietnam zu fahren
◎年  代 2021
◎产  地 德国
◎类  别 纪录片
◎语  言 德语
◎上映日期 2021-05-13(德国)
◎豆瓣评分 /10 from 0 users
◎豆瓣链接 https://movie.douban.com/subject/35450337/
◎片  长 108分钟

◎简  介

  Matthias and Tobias want to cycle from Germany to Vietnam. Their lack of training shows when they start their endeavor in August 2018. Against all odds and without ever losing their humor they push forward to reach that one ambitious goal.

Video
ID                                       : 1
Format                                   : AVC
Format/Info                              : Advanced Video Codec
Format profile                           : [email protected]
Format settings                          : CABAC / 4 Ref Frames
Format settings, CABAC                   : Yes
Format settings, Reference frames        : 4 frames
Codec ID                                 : V_MPEG4/ISO/AVC
Duration                                 : 1 h 52 min
Bit rate                                 : 11.4 Mb/s
Width                                    : 1 920 pixels
Height                                   : 1 080 pixels
Display aspect ratio                     : 16:9
Frame rate mode                          : Constant
Frame rate                               : 24.000 FPS
Color space                              : YUV
Chroma subsampling                       : 4:2:0
Bit depth                                : 8 bits
Scan type                                : Progressive
Bits/(Pixel*Frame)                       : 0.230
Stream size                              : 8.99 GiB (71%)
Writing library                          : x264 core 164 r3075 66a5bc1
Encoding settings                        : cabac=1 / ref=4 / deblock=1:-3:-3 / analyse=0x3:0x133 / me=umh / subme=9 / psy=1 / psy_rd=1.00:0.00 / mixed_ref=1 / me_range=16 / chroma_me=1 / trellis=2 / 8x8dct=1 / cqm=0 / deadzone=21,11 / fast_pskip=0 / chroma_qp_offset=-2 / threads=34 / lookahead_threads=2 / sliced_threads=0 / nr=0 / decimate=1 / interlaced=0 / bluray_compat=0 / constrained_intra=0 / bframes=3 / b_pyramid=2 / b_adapt=2 / b_bias=0 / direct=3 / weightb=1 / open_gop=0 / weightp=2 / keyint=250 / keyint_min=24 / scenecut=40 / intra_refresh=0 / rc_lookahead=60 / rc=crf / mbtree=1 / crf=18.0 / qcomp=0.60 / qpmin=0 / qpmax=69 / qpstep=4 / ip_ratio=1.40 / aq=1:1.00
Language                                 : English
Default                                  : Yes
Forced                                   : No

Audio
ID                                       : 2
Format                                   : DTS XLL
Format/Info                              : Digital Theater Systems
Commercial name                          : DTS-HD Master Audio
Codec ID                                 : A_DTS
Duration                                 : 1 h 52 min
Bit rate mode                            : Variable
Bit rate                                 : 4 466 kb/s
Channel(s)                               : 6 channels
Channel layout                           : C L R Ls Rs LFE
Sampling rate                            : 48.0 kHz
Frame rate                               : 93.750 FPS (512 SPF)
Bit depth                                : 24 bits
Compression mode                         : Lossless
Stream size                              : 3.51 GiB (28%)
Language                                 : German
Default                                  : Yes
Forced                                   : No

Text #1
ID                                       : 3
Format                                   : UTF-8
Codec ID                                 : S_TEXT/UTF8
Codec ID/Info                            : UTF-8 Plain Text
Duration                                 : 1 h 51 min
Bit rate                                 : 69 b/s
Count of elements                        : 1292
Stream size                              : 56.8 KiB (0%)
Language                                 : English
Default                                  : Yes
Forced                                   : No

Text #2
ID                                       : 4
Format                                   : PGS
Muxing mode                              : zlib
Codec ID                                 : S_HDMV/PGS
Codec ID/Info                            : Picture based subtitle format used on BDs/HD-DVDs
Duration                                 : 1 h 51 min
Bit rate                                 : 32.5 kb/s
Count of elements                        : 2155
Stream size                              : 25.9 MiB (0%)
Language                                 : English
Default                                  : No
Forced                                   : No

Text #3
ID                                       : 5
Format                                   : PGS
Muxing mode                              : zlib
Codec ID                                 : S_HDMV/PGS
Codec ID/Info                            : Picture based subtitle format used on BDs/HD-DVDs
Duration                                 : 1 h 52 min
Bit rate                                 : 31.2 kb/s
Count of elements                        : 2157
Stream size                              : 25.0 MiB (0%)
Language                                 : Russian
Default                                  : No
Forced                                   : No

Text #4
ID                                       : 6
Format                                   : PGS
Muxing mode                              : zlib
Codec ID                                 : S_HDMV/PGS
Codec ID/Info                            : Picture based subtitle format used on BDs/HD-DVDs
Duration                                 : 1 h 52 min
Bit rate                                 : 32.7 kb/s
Count of elements                        : 2108
Stream size                              : 26.2 MiB (0%)
Language                                 : French
Default                                  : No
Forced                                   : No

Text #5
ID                                       : 7
Format                                   : PGS
Muxing mode                              : zlib
Codec ID                                 : S_HDMV/PGS
Codec ID/Info                            : Picture based subtitle format used on BDs/HD-DVDs
Duration                                 : 1 h 52 min
Bit rate                                 : 34.1 kb/s
Count of elements                        : 2125
Stream size                              : 27.3 MiB (0%)
Language                                 : Spanish
Default                                  : No
Forced                                   : No

Text #6
ID                                       : 8
Format                                   : PGS
Muxing mode                              : zlib
Codec ID                                 : S_HDMV/PGS
Codec ID/Info                            : Picture based subtitle format used on BDs/HD-DVDs
Duration                                 : 1 h 52 min
Bit rate                                 : 32.7 kb/s
Count of elements                        : 2108
Stream size                              : 26.2 MiB (0%)
Language                                 : Catalan
Default                                  : No
Forced                                   : No

Text #7
ID                                       : 9
Format                                   : PGS
Muxing mode                              : zlib
Codec ID                                 : S_HDMV/PGS
Codec ID/Info                            : Picture based subtitle format used on BDs/HD-DVDs
Duration                                 : 1 h 52 min
Bit rate                                 : 29.8 kb/s
Count of elements                        : 1737
Stream size                              : 23.9 MiB (0%)
Language                                 : Japanese
Default                                  : No
Forced                                   : No

Text #8
ID                                       : 10
Format                                   : PGS
Muxing mode                              : zlib
Codec ID                                 : S_HDMV/PGS
Codec ID/Info                            : Picture based subtitle format used on BDs/HD-DVDs
Duration                                 : 1 h 52 min
Bit rate                                 : 37.0 kb/s
Count of elements                        : 2174
Stream size                              : 29.7 MiB (0%)
Language                                 : Vietnamese
Default                                  : No
Forced                                   : No

Text #9
ID                                       : 11
Format                                   : PGS
Muxing mode                              : zlib
Codec ID                                 : S_HDMV/PGS
Codec ID/Info                            : Picture based subtitle format used on BDs/HD-DVDs
Duration                                 : 1 h 52 min
Bit rate                                 : 28.8 kb/s
Count of elements                        : 2155
Stream size                              : 23.1 MiB (0%)
Language                                 : Czech
Default                                  : No
Forced                                   : No

Menu
00:00:00.000                             : en:Chapter 01
00:15:37.583                             : en:Chapter 02
00:29:23.333                             : en:Chapter 03
00:44:17.000                             : en:Chapter 04
00:57:48.417                             : en:Chapter 05
01:11:48.667                             : en:Chapter 06
01:26:33.083                             : en:Chapter 07
01:41:46.083                             : en:Chapter 08
01:51:11.500                             : en:Chapter 09



本帖子中包含更多资源

您需要 登录 才可以下载或查看,没有帐号?立即注册

x

1

主题

6219

帖子

8522

积分

升龙霸·VIP

Rank: 22Rank: 22Rank: 22Rank: 22

积分
8522

龙网VIP·银星龙网VIP·银徽龙网VIP·银牌

发表于 2021-11-20 10:37:51 | 显示全部楼层
感谢楼主分享
您需要登录后才可以回帖 登录 | 立即注册

本版积分规则

小黑屋|梦幻天堂·龙网

GMT+8, 2021-12-2 17:17 , Processed in 0.216445 second(s), 21 queries , Gzip On.

Powered by Discuz! X3.2

© 2001-2013 Comsenz Inc.

快速回复 返回顶部 返回列表