梦幻天堂·龙网

 找回密码
 立即注册
查看: 315|回复: 1

[1080p] [欧美] [其他] [WEB-1080P] 阿加莎·克里斯蒂:百年悬疑

[复制链接]

6984

主题

9100

帖子

1万

积分

神界龙王

Rank: 30Rank: 30Rank: 30Rank: 30

积分
19844

龙网爱心勋章

发表于 2021-11-10 10:22:05 | 显示全部楼层 |阅读模式


◎译  名 阿加莎·克里斯蒂:百年悬疑/Agatha Christie: 100 Years of Suspense
◎片  名 Agatha Christie: 100 Years of Poirot and Miss Marple
◎年  代 2020
◎产  地 英国
◎类  别 纪录片
◎语  言 英语
◎上映日期 2020-10-10(英国)
◎豆瓣评分 /10 from 0 users
◎豆瓣链接 https://movie.douban.com/subject/35231388/
◎主  演 奈杰尔·哈弗斯 Nigel Havers
       休·弗拉瑟 Hugh Fraser
       菲利普·杰克森 Philip Jackson
       安东尼·霍洛维茨 Anthony Horowitz
       萨曼莎·邦德 Samantha Bond
       阿曼达·阿宾顿 Amanda Abbington
       希拉·阿蒂姆 Sheila Atim

◎标  签 纪录片 | 阿加莎·克里斯蒂 | 英国 | 推理 | Documentary | 2020 | 文学 | UK

◎简  介

  To mark the 100th anniversary of the publication of Agatha Christie's first novel The Mysterious Affair at Styles, this documentary looks at the crime writer's life and 10 of her most famous books, including Murder on the Orient Express and Death on the Nile.

Video
ID                                       : 1
Format                                   : AVC
Format/Info                              : Advanced Video Codec
Format profile                           : [email protected]
Format settings                          : CABAC / 4 Ref Frames
Format settings, CABAC                   : Yes
Format settings, Reference frames        : 4 frames
Codec ID                                 : avc1
Codec ID/Info                            : Advanced Video Coding
Duration                                 : 1 h 6 min
Bit rate                                 : 2 500 kb/s
Width                                    : 1 920 pixels
Height                                   : 1 080 pixels
Display aspect ratio                     : 16:9
Frame rate mode                          : Constant
Frame rate                               : 25.000 FPS
Color space                              : YUV
Chroma subsampling                       : 4:2:0
Bit depth                                : 8 bits
Scan type                                : Progressive
Bits/(Pixel*Frame)                       : 0.048
Stream size                              : 1.16 GiB (92%)
Writing library                          : x264 core 152 r2851M ba24899
Encoding settings                        : cabac=1 / ref=4 / deblock=1:-1:-1 / analyse=0x3:0x113 / me=umh / subme=9 / psy=1 / psy_rd=1.00:0.15 / mixed_ref=1 / me_range=24 / chroma_me=1 / trellis=2 / 8x8dct=1 / cqm=0 / deadzone=21,11 / fast_pskip=1 / chroma_qp_offset=-3 / threads=16 / lookahead_threads=4 / sliced_threads=0 / nr=0 / decimate=1 / interlaced=0 / bluray_compat=0 / constrained_intra=0 / bframes=3 / b_pyramid=2 / b_adapt=2 / b_bias=0 / direct=3 / weightb=1 / open_gop=0 / weightp=2 / keyint=250 / keyint_min=25 / scenecut=40 / intra_refresh=0 / rc_lookahead=50 / rc=2pass / mbtree=1 / bitrate=2500 / ratetol=1.0 / qcomp=0.60 / qpmin=0 / qpmax=69 / qpstep=4 / cplxblur=20.0 / qblur=0.5 / vbv_maxrate=31250 / vbv_bufsize=31250 / nal_hrd=none / filler=0 / ip_ratio=1.40 / aq=3:1.00
Encoded date                             : UTC 2021-11-06 17:13:02
Tagged date                              : UTC 2021-11-06 17:13:02
Codec configuration box                  : avcC

Audio
ID                                       : 2
Format                                   : AAC LC
Format/Info                              : Advanced Audio Codec Low Complexity
Codec ID                                 : mp4a-40-2
Duration                                 : 1 h 6 min
Duration_LastFrame                       : -11 ms
Bit rate mode                            : Constant
Bit rate                                 : 224 kb/s
Channel(s)                               : 2 channels
Channel layout                           : L R
Sampling rate                            : 48.0 kHz
Frame rate                               : 46.875 FPS (1024 SPF)
Compression mode                         : Lossy
Stream size                              : 107 MiB (8%)
Language                                 : English
Default                                  : Yes
Alternate group                          : 1
Encoded date                             : UTC 2021-11-06 17:13:02
Tagged date                              : UTC 2021-11-06 17:13:02



本帖子中包含更多资源

您需要 登录 才可以下载或查看,没有帐号?立即注册

x

1

主题

6219

帖子

8522

积分

升龙霸·VIP

Rank: 22Rank: 22Rank: 22Rank: 22

积分
8522

龙网VIP·银星龙网VIP·银徽龙网VIP·银牌

发表于 2021-11-20 10:38:37 | 显示全部楼层
感谢楼主分享
您需要登录后才可以回帖 登录 | 立即注册

本版积分规则

小黑屋|梦幻天堂·龙网

GMT+8, 2021-12-2 17:51 , Processed in 0.144329 second(s), 21 queries , Gzip On.

Powered by Discuz! X3.2

© 2001-2013 Comsenz Inc.

快速回复 返回顶部 返回列表