梦幻天堂·龙网

 找回密码
 立即注册
查看: 408|回复: 1

[原盘remux] [欧美] [动作] [BD-4K] 不速之客 The.Guest.2014.2160p 42.59GB

[复制链接]

6984

主题

9100

帖子

1万

积分

神界龙王

Rank: 30Rank: 30Rank: 30Rank: 30

积分
19844

龙网爱心勋章

发表于 2021-11-10 10:20:39 | 显示全部楼层 |阅读模式


◎译  名 不速之客
◎片  名 The Guest
◎年  代 2014
◎产  地 美国
◎类  别 动作 / 悬疑 / 惊悚
◎语  言 英语
◎上映日期 2014-09-17(美国)
◎豆瓣评分 6.4/10 from 10255 users
◎豆瓣链接 https://movie.douban.com/subject/25721544/
◎片  长 99分钟
◎导  演 亚当·温加德 Adam Wingard
◎编  剧 西蒙·巴雷特 Simon Barrett
◎主  演 丹·史蒂文斯 Dan Stevens
       麦卡·梦露 Maika Monroe
       布雷丹·梅耶尔 Brendan Meyer
       谢拉·柯雷 Sheila Kelley
       利兰·奥瑟 Leland Orser
       兰斯·莱迪克 Lance Reddick
       塔別孚肖恩 Tabatha Shaun
       蔡斯·威廉逊 Chase Williamson
       乔·大卫·摩尔  Joel David Moore
       Stephen Brown Stephen Brown
       布兰登·韦德纳 Brenden Wedner
       亚历克斯·奈特 Alex Knight
       伊桑·恩布里 Ethan Embry
       Nancy Jeris Nancy Jeris
       马修·佩奇 Matthew Page
       凯蒂·安妮·米切尔 Katie Anne Mitchell
       杰西·卢肯 Jesse Luken
       坎迪斯·帕顿 Candice Patton

◎标  签 美国 | 惊悚 | 动作 | 犯罪 | 悬疑 | 丹·史蒂文斯 | 2014 | DanStevens

◎简  介

  一位退役归来的士兵与刚在战场上痛失长子的一家人结为朋友,相通的经历让他们的感情维系日益增强,士兵成为了这家人的贵客。然而这家人很快发现,士兵的真实身份并不像他所说的那样……via.张咏轩

◎获奖情况

  第30届美国独立精神奖 ?(2015)
  最佳剪辑(提名) 亚当·温加德

Video
ID                                       : 1
Format                                   : AVC
Format/Info                              : Advanced Video Codec
Format profile                           : [email protected]
Format settings                          : CABAC / 5 Ref Frames
Format settings, CABAC                   : Yes
Format settings, Reference frames        : 5 frames
Codec ID                                 : V_MPEG4/ISO/AVC
Duration                                 : 1 h 39 min
Bit rate                                 : 57.8 Mb/s
Width                                    : 3 840 pixels
Height                                   : 1 636 pixels
Display aspect ratio                     : 2.35:1
Frame rate mode                          : Constant
Frame rate                               : 23.976 (24000/1001/189150) FPS
Color space                              : YUV
Chroma subsampling                       : 4:2:0
Bit depth                                : 8 bits
Scan type                                : Progressive
Bits/(Pixel*Frame)                       : 0.384
Stream size                              : 40.2 GiB (95%)
Writing library                          : x264 core 157 r2935 545de2f
Encoding settings                        : cabac=1 / ref=5 / deblock=1:-1:-1 / analyse=0x3:0x113 / me=umh / subme=10 / psy=1 / psy_rd=1.00:0.15 / mixed_ref=1 / me_range=48 / chroma_me=1 / trellis=2 / 8x8dct=1 / cqm=0 / deadzone=21,11 / fast_pskip=1 / chroma_qp_offset=-3 / threads=48 / lookahead_threads=4 / sliced_threads=0 / nr=0 / decimate=0 / interlaced=0 / bluray_compat=0 / constrained_intra=0 / bframes=3 / b_pyramid=2 / b_adapt=2 / b_bias=0 / direct=3 / weightb=1 / open_gop=0 / weightp=2 / keyint=250 / keyint_min=23 / scenecut=40 / intra_refresh=0 / rc_lookahead=50 / rc=crf / mbtree=1 / crf=21.0 / qcomp=0.60 / qpmin=0 / qpmax=69 / qpstep=4 / ip_ratio=1.40 / aq=1:1.00
Default                                  : Yes
Forced                                   : No

Audio #1
ID                                       : 2
ID in the original source medium         : 4352 (0x1100)
Format                                   : DTS XLL
Format/Info                              : Digital Theater Systems
Commercial name                          : DTS-HD Master Audio
Codec ID                                 : A_DTS
Duration                                 : 1 h 39 min
Bit rate mode                            : Variable
Bit rate                                 : 2 365 kb/s
Channel(s)                               : 6 channels
Channel layout                           : C L R Ls Rs LFE
Sampling rate                            : 48.0 kHz
Frame rate                               : 93.750 FPS (512 SPF)
Bit depth                                : 24 bits
Compression mode                         : Lossless
Stream size                              : 1.65 GiB (4%)
Title                                    : DTS-HD MA 5.1
Language                                 : English
Default                                  : Yes
Forced                                   : No
Original source medium                   : Blu-ray

Audio #2
ID                                       : 3
Format                                   : AC-3
Format/Info                              : Audio Coding 3
Commercial name                          : Dolby Digital
Codec ID                                 : A_AC3
Duration                                 : 1 h 39 min
Bit rate mode                            : Constant
Bit rate                                 : 640 kb/s
Channel(s)                               : 6 channels
Channel layout                           : L R C LFE Ls Rs
Sampling rate                            : 48.0 kHz
Frame rate                               : 31.250 FPS (1536 SPF)
Compression mode                         : Lossy
Stream size                              : 456 MiB (1%)
Title                                    : DD 5.1
Language                                 : English
Service kind                             : Complete Main
Default                                  : No
Forced                                   : No

Text #1
ID                                       : 4
Format                                   : UTF-8
Codec ID                                 : S_TEXT/UTF8
Codec ID/Info                            : UTF-8 Plain Text
Duration                                 : 1 h 34 min
Bit rate                                 : 48 b/s
Count of elements                        : 965
Stream size                              : 33.5 KiB (0%)
Title                                    : SRT
Language                                 : English
Default                                  : Yes
Forced                                   : No

Text #2
ID                                       : 5
ID in the original source medium         : 4768 (0x12A0)
Format                                   : PGS
Muxing mode                              : zlib
Codec ID                                 : S_HDMV/PGS
Codec ID/Info                            : Picture based subtitle format used on BDs/HD-DVDs
Duration                                 : 1 h 34 min
Bit rate                                 : 31.3 kb/s
Count of elements                        : 2052
Stream size                              : 21.1 MiB (0%)
Language                                 : English
Default                                  : No
Forced                                   : No
Original source medium                   : Blu-ray

Menu
00:00:00.000                             : en:Chapter 01
00:08:55.201                             : en:Chapter 02
00:16:45.254                             : en:Chapter 03
00:25:26.191                             : en:Chapter 04
00:32:43.878                             : en:Chapter 05
00:39:58.187                             : en:Chapter 06
00:49:38.642                             : en:Chapter 07
00:59:58.303                             : en:Chapter 08
01:07:59.533                             : en:Chapter 09
01:14:01.603                             : en:Chapter 10
01:22:43.249                             : en:Chapter 11
01:29:34.285                             : en:Chapter 12



本帖子中包含更多资源

您需要 登录 才可以下载或查看,没有帐号?立即注册

x

1

主题

6219

帖子

8522

积分

升龙霸·VIP

Rank: 22Rank: 22Rank: 22Rank: 22

积分
8522

龙网VIP·银星龙网VIP·银徽龙网VIP·银牌

发表于 2021-11-20 10:39:18 | 显示全部楼层
感谢楼主分享
您需要登录后才可以回帖 登录 | 立即注册

本版积分规则

小黑屋|梦幻天堂·龙网

GMT+8, 2021-12-2 17:22 , Processed in 0.154175 second(s), 21 queries , Gzip On.

Powered by Discuz! X3.2

© 2001-2013 Comsenz Inc.

快速回复 返回顶部 返回列表