梦幻天堂·龙网

 找回密码
 立即注册
查看: 386|回复: 1

[1080p] [日本] [动作] [WEB-1080P] 一无是处 Good.For.Nothing.1960

[复制链接]

6984

主题

9100

帖子

1万

积分

神界龙王

Rank: 30Rank: 30Rank: 30Rank: 30

积分
19844

龙网爱心勋章

发表于 2021-11-10 10:13:57 | 显示全部楼层 |阅读模式


◎译  名 一无是处/Good-for-Nothing/Rokudenashi
◎片  名 ろくでなし
◎年  代 1960
◎产  地 日本
◎类  别 动作 / 犯罪
◎语  言 日语
◎上映日期 1960-07-06
◎豆瓣评分 7.9/10 from 266 users
◎豆瓣链接 https://movie.douban.com/subject/2160888/
◎片  长 88分钟
◎导  演 吉田喜重 Yoshishige Yoshida
◎编  剧 吉田喜重 Yoshishige Yoshida
◎主  演 佐佐木功 Isao Sasaki
       大濑郁惠 Hizuru Takachiho
       安井昌二 Sh?ji Yasui
       三岛雅夫 Masao Mishima
       川津祐介 Yusuke Kawazu
       千乃赫子 千之赫子
       津川雅彦 Masahiko Tsugawa
       渡边文雄 Fumio Watanabe

◎标  签 吉田喜重 | 日本 | 日本电影 | 1960s | 1960 | 日本新浪潮 | 青春 | 黑白

◎简  介

  初夏のオフィス街を、大学生の秋山俊夫は高級乗用車を走らせていた。同乗している北島淳、森下、藤枝もみな大学四年生だ。彼らは銀行帰りの郁子の前に車を止めた。彼女は俊夫の父秋山物産社長の秘書である。郁子を無理に乗せ、淳と森下は金を奪った。俊夫はやがて「遊びもこれまでだ」と金をかえすよう命令した。郁子は「大学までいっててロクデナシね」と言い捨てて降りた。ブルジョワ息子の俊夫と藤枝は盗むことに快感を得、森下はその金に誘惑を感じ、淳はなんの興味もなかった。--数日後の夕刻、郁子は同僚の篠原から映画に誘われ困惑していた。待っていた淳は、篠原を無視して強引にパーティに誘った。会場に行くと、大きな拍手が起こった。俊夫たちが郁子を帰国したばかりの新進シャンソン歌手にデッチあげていたのだ。俊夫たちは立往生している郁子を見て喜んだ。ピアノが演奏し始めた時淳が電気のスイッチを切った。車で待っていた。翌日、淳は森下らにパーティの損害弁償を迫られた。淳が払わないというと、学生たちは郁子に電話して払うことを約束させた。乱闘となった。俊夫が金を払っておさまった。郁子がき、金を置いて去った。数日後、淳は郁子に金を返した。--彼らは、葉山の海岸で最後の夏休みを送っていた。郁子は、アルバイトを探すために東京に帰る淳と一緒になった。郁子は秋山物産のアルバイトを世話すると約束し、家に誘った。室で、淳は郁子をベッドの上に押し倒した。数日後、帰りに郁子が待っていた。淳は俊夫の車に乗って去った。淳は郁子に束縛されるのがいやで、アルバイトをやめた。アパートに訪れた郁子に、あの夜のことは遊びにすぎず、二人は無関係だと言った。藤枝がアメリカへ行くことになった。俊夫が仲間が欠けるなら解散しようと言い出した。森下は、最後の馬鹿でかい遊びをしてからにしようと郁子の銀行帰りを狙って金を奪うと言った。俊夫に拳銃を借りた。車の中で郁子を待つ森下は緊張し、淳は無表情にハンドルを握っていた。森下が郁子の鞄を奪った。淳が森下に飛びかかった。森下の拳銃が火を吐いた。淳は重傷に耐え、車で森下をひき倒した。淳は郁子に鞄を渡した。郁子は中から白い紙片を取り出した。お金は入っていなかった。淳の「あれは遊びだったんだよ」と呟く声は次第に聞こえなくなった。

Video
ID                                       : 1
Format                                   : AVC
Format/Info                              : Advanced Video Codec
Format profile                           : [email protected]
Format settings                          : CABAC / 4 Ref Frames
Format settings, CABAC                   : Yes
Format settings, Reference frames        : 4 frames
Codec ID                                 : V_MPEG4/ISO/AVC
Duration                                 : 1 h 27 min
Bit rate mode                            : Constant
Bit rate                                 : 10 000 kb/s
Width                                    : 1 920 pixels
Height                                   : 816 pixels
Display aspect ratio                     : 2.35:1
Frame rate mode                          : Constant
Frame rate                               : 23.976 (24000/1001/189150) FPS
Color space                              : YUV
Chroma subsampling                       : 4:2:0
Bit depth                                : 8 bits
Scan type                                : Progressive
Bits/(Pixel*Frame)                       : 0.266
Stream size                              : 6.10 GiB (98%)
Language                                 : Japanese
Default                                  : Yes
Forced                                   : No
Color range                              : Limited
Color primaries                          : BT.709
Transfer characteristics                 : BT.709
Matrix coefficients                      : BT.709

Audio
ID                                       : 2
Format                                   : E-AC-3
Format/Info                              : Enhanced AC-3
Commercial name                          : Dolby Digital Plus
Codec ID                                 : A_EAC3
Duration                                 : 1 h 27 min
Bit rate mode                            : Constant
Bit rate                                 : 224 kb/s
Channel(s)                               : 2 channels
Channel layout                           : L R
Sampling rate                            : 48.0 kHz
Frame rate                               : 31.250 FPS (1536 SPF)
Compression mode                         : Lossy
Stream size                              : 141 MiB (2%)
Language                                 : Japanese
Service kind                             : Complete Main
Default                                  : Yes
Forced                                   : No

Text #1
ID                                       : 3
Format                                   : UTF-8
Codec ID                                 : S_TEXT/UTF8
Codec ID/Info                            : UTF-8 Plain Text
Duration                                 : 1 h 27 min
Bit rate                                 : 61 b/s
Count of elements                        : 1207
Stream size                              : 39.2 KiB (0%)
Language                                 : English
Default                                  : Yes
Forced                                   : No

Text #2
ID                                       : 4
Format                                   : UTF-8
Codec ID                                 : S_TEXT/UTF8
Codec ID/Info                            : UTF-8 Plain Text
Duration                                 : 1 h 27 min
Bit rate                                 : 70 b/s
Count of elements                        : 1208
Stream size                              : 45.1 KiB (0%)
Language                                 : French
Default                                  : No
Forced                                   : No

Text #3
ID                                       : 5
Format                                   : UTF-8
Codec ID                                 : S_TEXT/UTF8
Codec ID/Info                            : UTF-8 Plain Text
Duration                                 : 1 h 27 min
Bit rate                                 : 61 b/s
Count of elements                        : 1200
Stream size                              : 39.2 KiB (0%)
Language                                 : Spanish
Default                                  : No
Forced                                   : No

Menu
00:00:00.000                             : en:01. Main Title
00:01:12.072                             : en:02. Father\'s Secretary
00:03:54.234                             : en:03. All Human Beings Wolf
00:06:58.418                             : en:04. Atushi\'s famous acting
00:11:00.660                             : en:05. Father\'s Story
00:12:36.756                             : en:06. Ikuko\'s brother and couple
00:16:12.972                             : en:07. Invitation of Shinohara
00:19:35.174                             : en:08. Getting Dressed
00:21:45.304                             : en:09. Chanson Singer
00:23:45.424                             : en:10. Ikuko\'s Torment
00:27:01.620                             : en:11. You fool
00:28:51.730                             : en:12. Claim for Damages
00:31:35.894                             : en:13. No Borrowers
00:33:26.004                             : en:14. University Campus
00:34:48.086                             : en:15. President\'s Birthday Party
00:35:56.154                             : en:16. Unpleasant Guy
00:40:50.448                             : en:17. Hot Aparment
00:42:26.544                             : en:18. Hayama
00:43:32.610                             : en:19. At the End of Love
00:45:26.724                             : en:20. Night Beach
00:48:24.902                             : en:21. Studying in the USA
00:49:26.964                             : en:22. Pathetic Youth
00:50:57.054                             : en:23. Ikko Who Came
00:52:57.174                             : en:24. In The Train
00:53:43.220                             : en:25. Ikuko\'s House
00:55:09.306                             : en:26. I Am Tired of Being Bitten by a Wolf
00:57:31.448                             : en:27. Son Toshio
00:58:43.520                             : en:28. Meeting of Akiyama
01:00:41.638                             : en:29. Pistol
01:04:01.838                             : en:30. Repulsive Jun
01:06:23.980                             : en:31. It Was Play
01:09:16.152                             : en:32. Ikuko Who Will Shut Up
01:09:48.184                             : en:33. Shinohara and Date
01:13:56.432                             : en:34. Is It Already Autumn?
01:15:06.502                             : en:35. Morishita\'s Proposal
01:20:22.818                             : en:36. A Call from Akiyama
01:22:42.958                             : en:37. Ambush
01:25:03.098                             : en:38. Unrelated
01:27:41.256                             : en:39. End Mark



本帖子中包含更多资源

您需要 登录 才可以下载或查看,没有帐号?立即注册

x

1

主题

6219

帖子

8522

积分

升龙霸·VIP

Rank: 22Rank: 22Rank: 22Rank: 22

积分
8522

龙网VIP·银星龙网VIP·银徽龙网VIP·银牌

发表于 2021-11-20 10:40:30 | 显示全部楼层
感谢楼主分享
您需要登录后才可以回帖 登录 | 立即注册

本版积分规则

小黑屋|梦幻天堂·龙网

GMT+8, 2021-12-2 18:35 , Processed in 0.230308 second(s), 21 queries , Gzip On.

Powered by Discuz! X3.2

© 2001-2013 Comsenz Inc.

快速回复 返回顶部 返回列表